3½ Minutes, Ten Bullets (2015)

Posted By: Tutorial
3½ Minutes, Ten Bullets (2015)

3½ Minutes, Ten Bullets (2015)
BRRip | 720 x 400 | .AVI/XviD @ 1280 Kbps | 1 h 38 min | 1.20 GB
Audio: English AC-3 448 Kbps, 6 channels | Subs: English
Genre: Documentary, Crime

Black Friday, the day after Thanksgiving November 2012, four boys in a red SUV pull into a gas station after spending time at the mall buying sneakers and talking to girls. With music blaring, one boy exits the car and enters the store, a quick stop for a soda and a pack of gum. A man and a woman pull up next to the boys in the station, making a stop for a bottle of wine. The woman enters the store and an argument breaks out when the driver of the second car asks the boys to turn the music down. 3 1/2 minutes and ten bullets later, one of the boys is dead. 3 1/2 MINUTES dissects the aftermath of this fatal encounter.
Director: Marc Silver
Writer: Marc Silver
Stars: Lucia McBath, Ron Davis, Michael David Dunn

More info: IMDB

General
Complete name : 3.1-2.Minutes.Ten.Bullets.2015.avi
Format : AVI
Format/Info : Audio Video Interleave
File size : 1.20 GiB
Duration : 1 h 38 min
Overall bit rate : 1 737 kb/s
Movie name : RARBG - 3.1-2.Minutes.Ten.Bullets.2015.BRRip.XviD.AC3-RARBG
Writing application : Lavf57.71.100
Writing library : VirtualDub build 35491/release
Comment : RARBG - 3.1-2.Minutes.Ten.Bullets.2015.BRRip.XviD.AC3-RARBG

Video
ID : 0
Format : MPEG-4 Visual
Format profile : Simple@L5
Format settings, BVOP : No
Format settings, QPel : No
Format settings, GMC : No warppoints
Format settings, Matrix : Default (H.263)
Codec ID : XVID
Codec ID/Hint : XviD
Duration : 1 h 38 min
Bit rate : 1 280 kb/s
Width : 720 pixels
Height : 400 pixels
Display aspect ratio : 16:9
Frame rate : 23.976 (24000/1001) FPS
Color space : YUV
Chroma subsampling : 4:2:0
Bit depth : 8 bits
Scan type : Progressive
Compression mode : Lossy
Bits/(Pixel*Frame) : 0.185
Stream size : 904 MiB (74%)
Writing library : Lavc57.89.100

Audio
ID : 1
Format : AC-3
Format/Info : Audio Coding 3
Format settings, Endianness : Big
Codec ID : 2000
Duration : 1 h 38 min
Bit rate mode : Constant
Bit rate : 448 kb/s
Channel(s) : 6 channels
Channel positions : Front: L C R, Side: L R, LFE
Sampling rate : 48.0 kHz
Frame rate : 31.250 FPS (1536 spf)
Bit depth : 16 bits
Compression mode : Lossy
Stream size : 316 MiB (26%)
Alignment : Aligned on interleaves
Interleave, duration : 42 ms (1.00 video frame)
Interleave, preload duration : 512 ms
Service kind : Complete Main
Screenshots

3½ Minutes, Ten Bullets (2015)

3½ Minutes, Ten Bullets (2015)

3½ Minutes, Ten Bullets (2015)

3½ Minutes, Ten Bullets (2015)

Welcome to my blog - daily update!

3½ Minutes, Ten Bullets (2015)