30 Minutes or Less (2011)

Posted By: Tavaz
SD / BDRip IMDb
30 Minutes or Less (2011)

30 Minutes or Less (2011)
BDRip | MKV | 1280x534 | English | H264 @ 2650 kbps | AC-3 @ 448 kbps | 1 h 23 min | 1.80 GiB
Subtitles: English
Genre: Action, Adventure, Comedy

Two fledgling criminals kidnap a pizza delivery guy, strap a bomb to his chest, and advise him that he has mere hours to rob a bank or else…

1622547-BiRD.mkv (1.8 GB)



General
Unique ID : 214313839015914910083903398800930153145 (0xA13B5810C27F750793B2A3551820A2B9)
Complete name : ./30.Minutes.or.Less.2011.m720p.BluRay.x264-BiRD/1622547-BiRD.mkv
Format : Matroska
Format version : Version 2
File size : 1.80 GiB
Duration : 1 h 23 min
Overall bit rate : 3 105 kb/s
Encoded date : UTC 2011-11-05 05:24:16
Writing application : mkvmerge v4.0.0 ('The Stars were mine') built on Jun 6 2010 16:18:42
Writing library : libebml v1.0.0 + libmatroska v1.0.0

Video
ID : 1
Format : AVC
Format/Info : Advanced Video Codec
Format profile : High@L4.1
Format settings : CABAC / 8 Ref Frames
Format settings, CABAC : Yes
Format settings, RefFrames : 8 frames
Codec ID : V_MPEG4/ISO/AVC
Duration : 1 h 23 min
Bit rate : 2 650 kb/s
Width : 1 280 pixels
Height : 534 pixels
Display aspect ratio : 2.40:1
Original display aspect ratio : 2.40:1
Frame rate mode : Constant
Frame rate : 23.976 (24000/1001) FPS
Color space : YUV
Chroma subsampling : 4:2:0
Bit depth : 8 bits
Scan type : Progressive
Bits/(Pixel*Frame) : 0.162
Stream size : 1.51 GiB (84%)
Writing library : x264 core 119 r2106 07efeb4
Encoding settings : cabac=1 / ref=9 / deblock=1:-3:-3 / analyse=0x3:0x113 / me=umh / subme=11 / psy=1 / psy_rd=1.00:0.00 / mixed_ref=1 / me_range=16 / chroma_me=1 / trellis=2 / 8x8dct=1 / cqm=0 / deadzone=21,11 / fast_pskip=1 / chroma_qp_offset=-2 / threads=12 / sliced_threads=0 / nr=0 / decimate=1 / interlaced=0 / bluray_compat=0 / constrained_intra=0 / bframes=3 / b_pyramid=1 / b_adapt=1 / b_bias=0 / direct=1 / weightb=1 / open_gop=0 / weightp=2 / keyint=250 / keyint_min=23 / scenecut=40 / intra_refresh=0 / rc=2pass / mbtree=0 / bitrate=2650 / ratetol=1.0 / qcomp=0.60 / qpmin=0 / qpmax=69 / qpstep=4 / cplxblur=20.0 / qblur=0.5 / ip_ratio=1.40 / pb_ratio=1.30 / aq=1:0.80
Language : English
Default : Yes
Forced : No

Audio
ID : 2
Format : AC-3
Format/Info : Audio Coding 3
Format settings, Endianness : Big
Codec ID : A_AC3
Duration : 1 h 23 min
Bit rate mode : Constant
Bit rate : 448 kb/s
Channel(s) : 6 channels
Channel positions : Front: L C R, Side: L R, LFE
Sampling rate : 48.0 kHz
Frame rate : 31.250 FPS (1536 SPF)
Bit depth : 16 bits
Compression mode : Lossy
Stream size : 266 MiB (14%)
Language : English
Service kind : Complete Main
Default : Yes
Forced : No

Text
ID : 3
Format : VobSub
Muxing mode : zlib
Codec ID : S_VOBSUB
Codec ID/Info : Picture based subtitle format used on DVDs
Language : English
Default : Yes
Forced : No

Menu
00:00:00.000 : en:Chapter.01
00:04:02.283 : en:Chapter.02
00:10:14.322 : en:Chapter.03
00:15:47.905 : en:Chapter.04
00:20:26.642 : en:Chapter.05
00:27:07.000 : en:Chapter.06
00:30:19.984 : en:Chapter.07
00:35:03.017 : en:Chapter.08
00:41:10.926 : en:Chapter.09
00:45:14.712 : en:Chapter.10
00:49:54.449 : en:Chapter.11
00:54:01.821 : en:Chapter.12
00:58:42.185 : en:Chapter.13
01:03:39.232 : en:Chapter.14
01:07:53.778 : en:Chapter.15
01:14:51.737 : en:Chapter.16





30 Minutes or Less (2011)


30 Minutes or Less (2011)


30 Minutes or Less (2011)


30 Minutes or Less (2011)


30 Minutes or Less (2011)