Tags
Language
Tags

45 Years (2015)

Posted By: Tavaz
SD / BDRip IMDb
45 Years (2015)

45 Years (2015)
BDRip | MKV | 1024x554 | English / English | H264 @ 5204 kbps | AC-3 @ 448 kbps | 1 h 35 min | 3.85 GiB
Subtitles: Portuguese, Chinese, Spanish, Japanese, French, English, Russian
Genre: Drama

There is just one week until Kate Mercer's 45th wedding anniversary and the planning for the party is going well. But then a letter arrives for her husband. The body of his first love has been discovered, frozen and preserved in the icy glaciers of the Swiss Alps. By the time the party is upon them, five days later, there may not be a marriage left to celebrate.

bde91b9e806f41d6baf9d34cda17f3bb.mkv (3.9 GB)



General
Complete name : ./bde91b9e806f41d6baf9d34cda17f3bb.mkv
Format : Matroska
Format version : Version 4 / Version 2
File size : 3.85 GiB
Duration : 1 h 35 min
Overall bit rate : 5 763 kb/s
Encoded date : UTC 2018-06-24 04:43:40
Writing application : mkvmerge v8.9.0 ('Father Daughter') 32bit
Writing library : libebml v1.3.3 + libmatroska v1.4.4

Video
ID : 1
Format : AVC
Format/Info : Advanced Video Codec
Format profile : High@L4.1
Format settings : CABAC / 14 Ref Frames
Format settings, CABAC : Yes
Format settings, RefFrames : 14 frames
Codec ID : V_MPEG4/ISO/AVC
Duration : 1 h 35 min
Bit rate : 5 205 kb/s
Width : 1 024 pixels
Height : 554 pixels
Display aspect ratio : 1.85:1
Frame rate mode : Constant
Frame rate : 23.976 (24000/1001) FPS
Color space : YUV
Chroma subsampling : 4:2:0
Bit depth : 8 bits
Scan type : Progressive
Bits/(Pixel*Frame) : 0.383
Stream size : 3.48 GiB (90%)
Writing library : x264 core 155 r2901 7d0ff22
Encoding settings : cabac=1 / ref=14 / deblock=1:-3:-3 / analyse=0x3:0x133 / me=umh / subme=11 / psy=1 / psy_rd=0.95:0.00 / mixed_ref=1 / me_range=48 / chroma_me=1 / trellis=2 / 8x8dct=1 / cqm=0 / deadzone=21,11 / fast_pskip=1 / chroma_qp_offset=-2 / threads=6 / lookahead_threads=1 / sliced_threads=0 / nr=0 / decimate=0 / interlaced=0 / bluray_compat=0 / constrained_intra=0 / bframes=16 / b_pyramid=2 / b_adapt=2 / b_bias=0 / direct=3 / weightb=1 / open_gop=0 / weightp=2 / keyint=250 / keyint_min=23 / scenecut=40 / intra_refresh=0 / rc_lookahead=250 / rc=crf / mbtree=0 / crf=17.2 / qcomp=0.63 / qpmin=0 / qpmax=69 / qpstep=4 / vbv_maxrate=62500 / vbv_bufsize=78125 / crf_max=0.0 / nal_hrd=none / filler=0 / ip_ratio=1.30 / pb_ratio=1.20 / aq=3:0.78 / zones=5494,5632,crf=16.5/5651,6673,crf=16.5/6900,7633,crf=16.5/8266,8535,crf=16.5/8543,8554,crf=16.5/8593,8956,crf=16.5/10408,12049,crf=16.5/38805,38953,crf=16.5/39610,39723,crf=16.5/40483,42847,crf=16.5/42886,42915,crf=16.5/42932,43037,crf=16.5/77888,78639,crf=16.5/91693,91976,crf=16.5/93015,93022,crf=16.5
Language : English
Default : Yes
Forced : No
Color range : Limited
Matrix coefficients : BT.709

Audio #1
ID : 2
Format : AC-3
Format/Info : Audio Coding 3
Format settings, Endianness : Big
Codec ID : A_AC3
Duration : 1 h 35 min
Bit rate mode : Constant
Bit rate : 448 kb/s
Channel(s) : 6 channels
Channel positions : Front: L C R, Side: L R, LFE
Sampling rate : 48.0 kHz
Frame rate : 31.250 FPS (1536 SPF)
Bit depth : 16 bits
Compression mode : Lossy
Stream size : 307 MiB (8%)
Language : English
Service kind : Complete Main
Default : Yes
Forced : No

Audio #2
ID : 3
Format : AAC
Format/Info : Advanced Audio Codec
Format profile : LC
Codec ID : A_AAC-2
Duration : 1 h 35 min
Bit rate : 107 kb/s
Channel(s) : 2 channels
Channel positions : Front: L R
Sampling rate : 48.0 kHz
Frame rate : 46.875 FPS (1024 SPF)
Compression mode : Lossy
Stream size : 73.0 MiB (2%)
Title : Commentary with Writer and Director Andrew Haigh and Producer Tristan Goligher
Language : English
Default : No
Forced : No

Text #1
ID : 4
Format : UTF-8
Codec ID : S_TEXT/UTF8
Codec ID/Info : UTF-8 Plain Text
Duration : 1 h 32 min
Bit rate : 47 b/s
Count of elements : 966
Stream size : 32.1 KiB (0%)
Language : English
Default : No
Forced : No

Text #2
ID : 5
Format : UTF-8
Codec ID : S_TEXT/UTF8
Codec ID/Info : UTF-8 Plain Text
Duration : 1 h 33 min
Bit rate : 50 b/s
Count of elements : 1081
Stream size : 34.4 KiB (0%)
Title : SDH
Language : English
Default : No
Forced : No

Text #3
ID : 6
Format : ASS
Codec ID : S_TEXT/ASS
Codec ID/Info : Advanced Sub Station Alpha
Duration : 1 h 32 min
Bit rate : 144 b/s
Count of elements : 1020
Compression mode : Lossless
Stream size : 98.0 KiB (0%)
Title : Chs&Eng
Language : Chinese
Default : No
Forced : No

Text #4
ID : 7
Format : UTF-8
Codec ID : S_TEXT/UTF8
Codec ID/Info : UTF-8 Plain Text
Duration : 1 h 26 min
Bit rate : 50 b/s
Count of elements : 849
Stream size : 31.8 KiB (0%)
Language : French
Default : No
Forced : No

Text #5
ID : 8
Format : UTF-8
Codec ID : S_TEXT/UTF8
Codec ID/Info : UTF-8 Plain Text
Duration : 1 h 28 min
Bit rate : 42 b/s
Count of elements : 819
Stream size : 27.5 KiB (0%)
Language : Japanese
Default : No
Forced : No

Text #6
ID : 9
Format : UTF-8
Codec ID : S_TEXT/UTF8
Codec ID/Info : UTF-8 Plain Text
Duration : 1 h 32 min
Bit rate : 50 b/s
Count of elements : 947
Stream size : 33.8 KiB (0%)
Language : Portuguese
Default : No
Forced : No

Text #7
ID : 10
Format : UTF-8
Codec ID : S_TEXT/UTF8
Codec ID/Info : UTF-8 Plain Text
Duration : 1 h 26 min
Bit rate : 78 b/s
Count of elements : 884
Stream size : 49.8 KiB (0%)
Language : Russian
Default : No
Forced : No

Text #8
ID : 11
Format : UTF-8
Codec ID : S_TEXT/UTF8
Codec ID/Info : UTF-8 Plain Text
Duration : 1 h 26 min
Bit rate : 46 b/s
Count of elements : 879
Stream size : 29.2 KiB (0%)
Language : Spanish
Default : No
Forced : No

Menu
00:00:00.000 : en:Opening Credits
00:01:40.642 : en:A letter in German
00:06:13.581 : en:A glacier in Switzerland
00:10:27.209 : en:Party preparations
00:14:09.223 : en:"Next of kin"
00:20:31.897 : en:How Katya died
00:26:01.101 : en:Tuesday: Lunch in town
00:32:38.373 : en:Dancing to "Stagger Lee"
00:38:56.459 : en:Geoff in the attic
00:41:04.336 : en:Wednesday: Drive with Lena
00:44:31.919 : en:Canal cruise
00:47:53.537 : en:"Would you have married her for real?"
00:52:39.072 : en:Thursday: Kate in the attic
01:02:48.347 : en:Kate picks up Geoff
01:07:22.705 : en:Friday: The travel agency
01:11:42.381 : en:"Of course I'm going to come"
01:14:51.653 : en:Saturday: Kate at the piano
01:19:15.000 : en:The party
01:23:34.968 : en:Geoff's toast
01:28:18.418 : en:"Smoke Gets in Your Eyes"
01:31:32.195 : en:Closing credits





45 Years (2015)


45 Years (2015)


45 Years (2015)


45 Years (2015)


45 Years (2015)