5 Days of War (2011)

Posted By: FenixN
5 Days of War (2011)

5 Days of War (2011)
DVDRip | AVI / XviD, 759 kb/s | 640x272 | 01:48:25 | German: MP3, 128 kb/s (2 ch) | 700 mb
Genre: Action, Drama, War | USA

Im August 2008 bricht ein Krieg zwischen Russland und Georgien aus. Der amerikanische Reporter Thomas Anders (Rupert Friend Outlaw) und sein Kameramann Sebastian (Richard Coyle Prince of Persia: Der Sand der Zeit) wollen den eskalierenden Konflikt dokumentieren. Als Thomas sich aber in die junge Georgierin Tatia (Emanuelle Chriqui Entourage) verliebt, erkennt er: Wer nur zuschaut, wenn furchtbare Verbrechen geschehen, macht sich schuldig. Thomas Anders (Rupert Friend) ist ein junger Kriegskorrespondent, den seine inneren Dämonen auf die Schlachtfelder treiben. Nur im Chaos des Krieges findet er Ruhe und Gelassenheit. In aller Welt streift Anders mit seinem langjährigen Kameramann Sebastian (Richard Coyle) von einer Konfliktzone zur anderen. Der Reporter ist süchtig nach Kriegserlebnissen. Für die Details der Nachrichten, die er vor Ort recherchiert, interessiert ansässigen Frau namens Tatia (Emanuelle Chriqui) dabei, ihren Vater und ihre Schwester zu suchen, die beide vermisst werden. Doch die Geschichte, der sie auf der Spur sind, wird viel persönlicher, als die Journalisten sich je hätten träumen lassen. Als Anders und Sebastian in einem Dorf festsitzen, dokumentieren sie Beweise für Kriegsverbrechen, die von freiwilligen Milizionären begangen wurden. Ihr Anführer ist ein bedrohlicher Söldner, den man nur unter dem Namen Danil kennt. Er ist mit den russischen Truppen ins Land gekommen, die unter dem Befehl des charismatischen, aber kriegsmüden Oberst Alexander Demidov stehen. Mit Hilfe eines georgischen Hauptmanns und seinen Soldaten, die von der flüchtenden georgischen Armee getrennt wurden, gelingt Anders und Sebastian die Flucht aus der Kampfzone. In der belagerten Stadt Gori treffen sie erneut auf ihre Kollegen. Um der Welt ihr Filmmaterial er sich weniger. Als Anders und Sebastian erfahren, dass die Spannungen zwischen Georgien und Russland wegen der abtrünnigen Region Südossetien rasant ansteigen, reisen sie in die georgische Hauptstadt Tiflis. Dort schließen sie sich drei alten Kollegen an, die gerade von der sich verschärfenden diplomatischen Krise berichten, in der die georgische Regierung unter Präsident Michail Saakaschwili (Andy Garcia) steckt.

imdb: 5,6/10 (3.766 Stimmen)

Format : AVI
Format/Info : Audio Video Interleave
File size : 700 MiB
Duration : 1h 48mn
Overall bit rate : 902 Kbps
Writing application : VirtualDubMod 1.5.10.2 (build 2540/release)
Writing library : VirtualDubMod build 2540/release

Video
ID : 0
Format : MPEG-4 Visual
Format profile : Advanced Simple@L5
Format settings, BVOP : 2
Format settings, QPel : No
Format settings, GMC : No warppoints
Format settings, Matrix : Default (H.263)
Codec ID : XVID
Codec ID/Hint : XviD
Duration : 1h 48mn
Bit rate : 759 Kbps
Width : 640 pixels
Height : 272 pixels
Display aspect ratio : 2.35:1
Frame rate : 25.000 fps
Color space : YUV
Chroma subsampling : 4:2:0
Bit depth : 8 bits
Scan type : Progressive
Compression mode : Lossy
Bits/(Pixel*Frame) : 0.174
Stream size : 588 MiB (84%)
Writing library : XviD 1.2.1 (UTC 2008-12-04)

Audio
ID : 1
Format : MPEG Audio
Format version : Version 1
Format profile : Layer 3
Mode : Joint stereo
Mode extension : MS Stereo
Codec ID : 55
Codec ID/Hint : MP3
Duration : 1h 48mn
Bit rate mode : Variable
Bit rate : 128 Kbps
Channel(s) : 2 channels
Sampling rate : 48.0 KHz
Compression mode : Lossy
Stream size : 101 MiB (14%)
Alignment : Aligned on interleaves
Interleave, duration : 24 ms (0.60 video frame)
Interleave, preload duration : 141 ms
Writing library : LAME3.90.
Encoding settings : -m j -V 4 -q 2 -lowpass 17.6 –abr 128


screenshot
5 Days of War (2011)

5 Days of War (2011)

5 Days of War (2011)

5 Days of War (2011)


Welcome to the best movies collection (English, German, French language), best software, best eLearning video and many-many more: LINK
Do not forget to check my blog! Updated regularly!