(500) Days of Summer (2009)

Posted By: FenixN
(500) Days of Summer (2009)

(500) Days of Summer (2009)
BDRip | MKV / x264, 5705 kb/s | 1920x800 | 01:35:04 | English : DTS 1510 kb/s (6 ch) / German: DTS, 755 kb/s (6 ch) | Subtitles: German (UTF-8) | 5.4 GB
Genre: Comedy, Drama, Romance | USA

After it looks as if she's left his life for good this time, Tom Hansen reflects back on the just over one year that he knew Summer Finn. Despite being physically average in almost every respect, Summer had always attracted the attention of men, Tom included. For Tom, it was love at first sight when she walked into the greeting card company where he worked, she the new administrative assistant. Soon, Tom knew that Summer was the woman with whom he wanted to spend the rest of his life. Although Summer did not believe in relationships or boyfriends - in her assertion, real life will always ultimately get in the way - Tom and Summer became more than just friends. Through the trials and tribulations of Tom and Summer's so-called relationship, Tom could always count on the advice of his two best friends, McKenzie and Paul. However, it is Tom's adolescent sister, Rachel, who is his voice of reason…
––––––––––––––––––––––––––––––––––––––––––––––––-

Dies ist die Geschichte von einem Jungen und einem Mädchen. Aber keine Liebesgeschichte. So sieht es jedenfalls die bezaubernde Summer (Zooey Deschanel), in die sich der Grußkartenschreiber Tom (Joseph Gordon-Levitt) unsterblich verliebt hat. Doch ist es so, wie sie sagt oder ist da doch mehr? Für ihn ist Summer ein magisches Mysterium, das ihn in einen Rausch zwischen Euphorie und Melancholie stürzt. Doch es wird 500 Tage dauern, bis Summer weiß, ob Tom der Richtige für sie ist…

imdb: 8,0/10 (99.827 votes)

Format : Matroska
File size : 5.40 GiB
Duration : 1h 35mn
Overall bit rate : 8 131 Kbps
Encoded date : UTC 2010-03-07 18:43:46
Writing application : mkvmerge v3.2.0 ('Beginnings') built on Feb 12 2010 16:46:17
Writing library : libebml v0.7.9 + libmatroska v0.8.1

Video
ID : 1
Format : AVC
Format/Info : Advanced Video Codec
Format profile : High@L4.1
Format settings, CABAC : Yes
Format settings, ReFrames : 5 frames
Codec ID : V_MPEG4/ISO/AVC
Duration : 1h 35mn
Bit rate : 5 705 Kbps
Width : 1 920 pixels
Height : 800 pixels
Display aspect ratio : 2.40:1
Frame rate : 23.976 fps
Color space : YUV
Chroma subsampling : 4:2:0
Bit depth : 8 bits
Scan type : Progressive
Bits/(Pixel*Frame) : 0.155
Stream size : 3.79 GiB (70%)
Writing library : x264 core 88 r1471 1144615
Encoding settings : cabac=1 / ref=5 / deblock=1:0:0 / analyse=0x3:0x133 / me=umh / subme=7 / psy=1 / psy_rd=1.00:0.00 / mixed_ref=1 / me_range=16 / chroma_me=1 / trellis=1 / 8x8dct=1 / cqm=0 / deadzone=21,11 / fast_pskip=0 / chroma_qp_offset=-2 / threads=6 / sliced_threads=0 / nr=0 / decimate=1 / mbaff=0 / constrained_intra=0 / bframes=3 / b_pyramid=2 / b_adapt=1 / b_bias=0 / direct=3 / wpredb=1 / wpredp=2 / keyint=250 / keyint_min=25 / scenecut=40 / intra_refresh=0 / rc_lookahead=40 / rc=crf / mbtree=1 / crf=20.0 / qcomp=0.60 / qpmin=10 / qpmax=51 / qpstep=4 / ip_ratio=1.40 / aq=1:1.00
Language : German

Audio #1
ID : 2
Format : DTS
Format/Info : Digital Theater Systems
Codec ID : A_DTS
Duration : 1h 35mn
Bit rate mode : Constant
Bit rate : 755 Kbps
Channel(s) : 6 channels
Channel positions : Front: L C R, Side: L R, LFE
Sampling rate : 48.0 KHz
Bit depth : 24 bits
Compression mode : Lossy
Stream size : 513 MiB (9%)
Language : German

Audio #2
ID : 3
Format : DTS
Format/Info : Digital Theater Systems
Codec ID : A_DTS
Duration : 1h 35mn
Bit rate mode : Constant
Bit rate : 1 510 Kbps
Channel(s) : 6 channels
Channel positions : Front: L C R, Side: L R, LFE
Sampling rate : 48.0 KHz
Bit depth : 24 bits
Compression mode : Lossy
Stream size : 1.00 GiB (19%)
Language : English

Text
ID : 4
Format : UTF-8
Codec ID : S_TEXT/UTF8
Codec ID/Info : UTF-8 Plain Text
Language : German


screenshot
(500) Days of Summer (2009)

(500) Days of Summer (2009)

(500) Days of Summer (2009)

(500) Days of Summer (2009)


Welcome to the best movies collection (English, German, French language), best software, best eLearning video and many-many more: LINK
Do not forget to check my blog! Updated regularly!