Tags
Language
Tags

6 Days (2017)

Posted By: Tavaz
1080p (FullHD) / BDRip IMDb
6 Days (2017)

6 Days (2017)
BDRip | MOV | 1920x804 | English | H264 @ 5405 kbps | AC-3 @ 640 kbps | 1 h 34 min | 4.00 GiB
Subtitles: English
Genre: Action, Drama, History, Thriller

London, England, April 1980. Six terrorists assault the Embassy of Iran and take hostages. For six days, tense negotiations are held while the authorities decide whether a military squad should intervene.

36d37527a32e421fa76e30921232bdb8.mp4 (4.0 GB)



General
Complete name : ./36d37527a32e421fa76e30921232bdb8.mp4
Format : MPEG-4
Format profile : Base Media / Version 2
Codec ID : mp42 (isom/iso2/avc1/mp41)
File size : 4.00 GiB
Duration : 1 h 34 min
Overall bit rate mode : Variable
Overall bit rate : 6 050 kb/s
Movie name : 6 Days
Director : Toa Fraser / Glenn Standring / Hamish Gough
Actor : Jamie Bell / Abbie Cornish / Mark Strong / Martin Shaw / Emun Elliott
Screenplay by : Glenn Standring
Producer : Daniel Hubbard / Norman Merry / Matthew Metcalfe / Catherine Madigan
Genre : Action
ContentType : Short Film
Description : In the face of terror, a nation will show its strength
Recorded date : 2017-08-03
Encoded date : UTC 2020-02-09 03:09:18
Tagged date : UTC 2020-02-09 03:09:18
Writing application : LiMEY's Special Sauce v2.0
Cover : Yes
ContentRating : mpaa|R|400|
LongDescription : London, England, April 1980. Six terrorists assault the Embassy of Iran and take hostages. For six days, tense negotiations are held while the authorities decide whether a military squad should intervene.

Video
ID : 1
Format : AVC
Format/Info : Advanced Video Codec
Format profile : High@L4.1
Format settings : CABAC / 4 Ref Frames
Format settings, CABAC : Yes
Format settings, RefFrames : 4 frames
Codec ID : avc1
Codec ID/Info : Advanced Video Coding
Duration : 1 h 34 min
Bit rate : 5 405 kb/s
Width : 1 920 pixels
Height : 804 pixels
Display aspect ratio : 2.40:1
Frame rate mode : Variable
Frame rate : 23.976 (24000/1001) FPS
Minimum frame rate : 23.974 FPS
Maximum frame rate : 23.981 FPS
Color space : YUV
Chroma subsampling : 4:2:0
Bit depth : 8 bits
Scan type : Progressive
Bits/(Pixel*Frame) : 0.146
Stream size : 3.57 GiB (89%)
Writing library : x264 core 157 r2935 545de2f
Encoding settings : cabac=1 / ref=4 / deblock=1:-3:-3 / analyse=0x3:0x113 / me=esa / subme=10 / psy=1 / psy_rd=1.00:0.20 / mixed_ref=1 / me_range=32 / chroma_me=1 / trellis=2 / 8x8dct=1 / cqm=0 / deadzone=21,11 / fast_pskip=0 / chroma_qp_offset=-3 / threads=12 / lookahead_threads=1 / sliced_threads=0 / nr=0 / decimate=0 / interlaced=0 / bluray_compat=0 / constrained_intra=0 / bframes=5 / b_pyramid=2 / b_adapt=2 / b_bias=0 / direct=3 / weightb=1 / open_gop=0 / weightp=2 / keyint=240 / keyint_min=24 / scenecut=40 / intra_refresh=0 / rc_lookahead=60 / rc=2pass / mbtree=1 / bitrate=5405 / ratetol=1.0 / qcomp=0.60 / qpmin=0 / qpmax=69 / qpstep=4 / cplxblur=20.0 / qblur=0.5 / vbv_maxrate=34500 / vbv_bufsize=30000 / nal_hrd=none / filler=0 / ip_ratio=1.40 / aq=1:0.80
Encoded date : UTC 2020-02-09 03:09:18
Tagged date : UTC 2020-02-09 03:09:18
Color range : Limited
Color primaries : BT.709
Transfer characteristics : BT.709
Matrix coefficients : BT.709

Audio
ID : 2
Format : AC-3
Format/Info : Audio Coding 3
Format settings, Endianness : Big
Codec ID : ac-3
Duration : 1 h 34 min
Bit rate mode : Constant
Bit rate : 640 kb/s
Channel(s) : 6 channels
Channel positions : Front: L C R, Side: L R, LFE
Sampling rate : 48.0 kHz
Frame rate : 31.250 FPS (1536 SPF)
Bit depth : 16 bits
Compression mode : Lossy
Stream size : 433 MiB (11%)
Title : DTS-HD MA 5.1
Language : English
Service kind : Complete Main
Default : Yes
Alternate group : 1
Encoded date : UTC 2020-02-09 03:09:18
Tagged date : UTC 2020-02-09 03:09:18

Text
ID : 3
Format : Timed Text
Muxing mode : sbtl
Codec ID : tx3g
Duration : 1 h 28 min
Bit rate mode : Variable
Bit rate : 92 b/s
Stream size : 59.6 KiB (0%)
Title : English
Language : English
Default : Yes
Forced : No
Alternate group : 3
Encoded date : UTC 2020-02-09 03:09:18
Tagged date : UTC 2020-02-09 03:09:18





6 Days (2017)


6 Days (2017)


6 Days (2017)


6 Days (2017)


6 Days (2017)