6 Ways To Die / 6 Ways to Sundown (2015)

Posted By: NaVi7
6 Ways To Die / 6 Ways to Sundown (2015)

6 Ways To Die / 6 Ways to Sundown (2015)
HDRip | MKV / AVC, 1861 Kbps | 720x304 | 1h 43mn | 1.61 GB | English: AC3, 384 Kbps (6 ch) | Subtitles: None
WEB-DL 720p | MKV / AVC, 3913 Kbps | 1280x536 | 1h 43mn | 3.17 GB | English: AC3, 384 Kbps (6 ch) | Subtitles: English
Genre: Action | Crime | Thriller

Sonny "Sundown" Garcia is the top North American narcotics distributor for the Colombian cartels. He has created the most efficient and productive distribution pipeline since the era of the Cocaine Cowboys. John Doe is a man of mystery. His identity and history are unknown. All we know is that he wants Sundown dead and six feet under. But before he does so, he wants to make Sundown feel every thing that he felt, suffer every thing that he suffered and lose everything that he lost. To exact his revenge, John Doe hires 6 contractors from the criminal underworld with individual specialties, to execute his plan. John wants 6 things taken from Sundown: his freedom, his love, his reputation, his most valuable possession, his money and finally, his life. Sundown's life is quickly and efficiently turned to a living hell. His bank account is wiped clean. His wife disappears. His loyalties are put to the test. Systematically, Sundown's entire life is being wiped out, ending with his successful …

imdb

General
Unique ID : 198409342634604877044104183124692782034 (0x95443FDA2920031287E03F8656374BD2)
Complete name : 6.Ways.To.Die.2015.HDRip.X264.AC3-PLAYNOW.mkv.mkv
Format : Matroska
Format version : Version 2
File size : 1.61 GiB
Duration : 1h 43mn
Overall bit rate : 2 230 Kbps
Movie name : 6 Ways to Die
Encoded date : UTC
Writing application : mkvmerge v7.0.0 ('Where We Going') 32bit built on Jun 9 2014 15:08:34
Writing library : Lavf55.12.0
ARTIST : Nadeem Soumah
DATE_RELEASED : 2015-07-31T07:00:00Z
GENRE : Action & Adventure
DESCRIPTION : After being beaten and left to die, the mysterious John Doe is out for revenge to bring down the
SYNOPSIS : After being beaten and left to die, the mysterious John Doe is out for revenge to bring down the notorious drug kingpin Sonny Garcia. To just kill Sonny would be too easy. John wants to inflict a level of pain beyond measure.
DURATION : 01:43:31.008000000
NUMBER_OF_FRAMES : 194094
NUMBER_OF_BYTES : 298128384
_STATISTICS_WRITING_APP : mkvmerge v7.0.0 ('Where We Going') 32bit built on Jun 9 2014 15:08:34
_STATISTICS_WRITING_DATE_UT : 2015-07-31 05:20:41
_STATISTICS_TAGS : BPS DURATION NUMBER_OF_FRAMES NUMBER_OF_BYTES

Video
ID : 1
Format : AVC
Format/Info : Advanced Video Codec
Format profile : High@L4.1
Format settings, CABAC : Yes
Format settings, ReFrames : 4 frames
Codec ID : V_MPEG4/ISO/AVC
Duration : 1h 43mn
Bit rate : 1 861 Kbps
Width : 720 pixels
Height : 304 pixels
Display aspect ratio : 2.35:1
Frame rate mode : Constant
Frame rate : 23.976 fps
Color space : YUV
Chroma subsampling : 4:2:0
Bit depth : 8 bits
Scan type : Progressive
Bits/(Pixel*Frame) : 0.355
Stream size : 1.30 GiB (81%)
Writing library : x264 core 142 r2479 dd79a61
Encoding settings : cabac=1 / ref=1 / deblock=1:0:0 / analyse=0x3:0x113 / me=hex / subme=2 / psy=1 / psy_rd=1.00:0.00 / mixed_ref=0 / me_range=16 / chroma_me=1 / trellis=0 / 8x8dct=1 / cqm=0 / deadzone=21,11 / fast_pskip=1 / chroma_qp_offset=0 / threads=48 / lookahead_threads=2 / sliced_threads=0 / nr=0 / decimate=1 / interlaced=0 / bluray_compat=0 / constrained_intra=0 / bframes=3 / b_pyramid=2 / b_adapt=1 / b_bias=0 / direct=1 / weightb=1 / open_gop=0 / weightp=1 / keyint=240 / keyint_min=24 / scenecut=40 / intra_refresh=0 / rc_lookahead=10 / rc=abr / mbtree=1 / bitrate=1861 / ratetol=1.0 / qcomp=0.60 / qpmin=0 / qpmax=69 / qpstep=4 / vbv_maxrate=62500 / vbv_bufsize=78125 / nal_hrd=none / filler=0 / ip_ratio=1.40 / aq=1:1.00
Default : Yes
Forced : No
Color range : Limited
Color primaries : BT.709
Transfer characteristics : BT.709
Matrix coefficients : BT.709
DURATION : 01:43:30.913000000
NUMBER_OF_FRAMES : 148913
NUMBER_OF_BYTES : 1431937473
_STATISTICS_WRITING_APP : mkvmerge v7.0.0 ('Where We Going') 32bit built on Jun 9 2014 15:08:34
_STATISTICS_WRITING_DATE_UT : 2015-07-31 05:20:41
_STATISTICS_TAGS : BPS DURATION NUMBER_OF_FRAMES NUMBER_OF_BYTES

Audio
ID : 2
Format : AC-3
Format/Info : Audio Coding 3
Mode extension : CM (complete main)
Format settings, Endianness : Big
Codec ID : A_AC3
Duration : 1h 43mn
Bit rate mode : Constant
Bit rate : 384 Kbps
Channel(s) : 6 channels
Channel positions : Front: L C R, Side: L R, LFE
Sampling rate : 48.0 KHz
Compression mode : Lossy
Stream size : 284 MiB (17%)
Language : English
Default : Yes
Forced : No

General
Unique ID : 222615318272163961585486265962723225050 (0xA77A2697CFD7CCD782E04E88D39F2DDA)
Complete name : 6.Ways.To.Die.2015.720p.WEB-DL.DD5.1.H.264-PLAYNOW.mkv
Format : Matroska
Format version : Version 4 / Version 2
File size : 3.17 GiB
Duration : 1h 43mn
Overall bit rate : 4 384 Kbps
Encoded date : UTC 2015-07-31 05:16:41
Writing application : mkvmerge v7.0.0 ('Where We Going') 64bit built on Jun 9 2014 15:16:27
Writing library : libebml v1.3.0 + libmatroska v1.4.1

Video
ID : 2
Format : AVC
Format/Info : Advanced Video Codec
Format profile : Main@L3.1
Format settings, CABAC : No
Format settings, ReFrames : 2 frames
Codec ID : V_MPEG4/ISO/AVC
Duration : 1h 43mn
Bit rate : 3 913 Kbps
Width : 1 280 pixels
Height : 536 pixels
Display aspect ratio : 2.40:1
Frame rate mode : Constant
Frame rate : 23.976 fps
Color space : YUV
Chroma subsampling : 4:2:0
Bit depth : 8 bits
Scan type : Progressive
Bits/(Pixel*Frame) : 0.238
Stream size : 2.83 GiB (89%)
Language : English
Default : Yes
Forced : No
Color range : Limited
Color primaries : BT.709
Transfer characteristics : BT.709
Matrix coefficients : BT.709

Audio
ID : 1
Format : AC-3
Format/Info : Audio Coding 3
Mode extension : CM (complete main)
Format settings, Endianness : Big
Codec ID : A_AC3
Duration : 1h 43mn
Bit rate mode : Constant
Bit rate : 384 Kbps
Channel(s) : 6 channels
Channel positions : Front: L C R, Side: L R, LFE
Sampling rate : 48.0 KHz
Compression mode : Lossy
Stream size : 284 MiB (9%)
Language : English
Default : Yes
Forced : No

Text
ID : 3
Format : UTF-8
Codec ID : S_TEXT/UTF8
Codec ID/Info : UTF-8 Plain Text
Language : English
Default : No
Forced : No

Menu
00:00:00.000 : en:Chapter 1
00:10:11.000 : en:Chapter 2
00:19:31.000 : en:Chapter 3
00:28:01.000 : en:Chapter 4
00:35:14.000 : en:Chapter 5
00:45:32.000 : en:Chapter 6
01:00:18.000 : en:Chapter 7
01:11:37.000 : en:Chapter 8
01:20:27.000 : en:Chapter 9
01:28:27.000 : en:Chapter 10
01:40:40.000 : en:Chapter 11


screenshots HDRip:

6 Ways To Die / 6 Ways to Sundown (2015)

6 Ways To Die / 6 Ways to Sundown (2015)

6 Ways To Die / 6 Ways to Sundown (2015)


screenshots WEB-DL 720p:

6 Ways To Die / 6 Ways to Sundown (2015)

6 Ways To Die / 6 Ways to Sundown (2015)

6 Ways To Die / 6 Ways to Sundown (2015)