A Beginner's Guide to Snuff (2016)

Posted By: Tavaz
720p (HD) / BDRip IMDb
A Beginner's Guide to Snuff (2016)

A Beginner's Guide to Snuff (2016)
BDRip | MKV | 1280x720 | English | H264 @ 5676 kbps | DTS @ 1509 kbps | 1 h 27 min | 4.37 GiB
Genre: Comedy, Horror, Thriller

Two brothers, desperate to break into the world of television and film, decide to enter a horror movie contest. And what could be more horrifying than the elusive snuff film?

3c0367489e154c0d94c104a85f116745.mkv (4.4 GB)



General
Complete name : ./3c0367489e154c0d94c104a85f116745.mkv
Format : Matroska
Format version : Version 4 / Version 2
File size : 4.37 GiB
Duration : 1 h 27 min
Overall bit rate : 7 184 kb/s
Encoded date : UTC 2018-03-25 15:30:11
Writing application : mkvmerge v7.9.0 ('Birds') 64bit
Writing library : libebml v1.3.1 + libmatroska v1.4.2

Video
ID : 1
Format : AVC
Format/Info : Advanced Video Codec
Format profile : High@L4.1
Format settings : CABAC / 5 Ref Frames
Format settings, CABAC : Yes
Format settings, RefFrames : 5 frames
Codec ID : V_MPEG4/ISO/AVC
Duration : 1 h 27 min
Bit rate : 5 676 kb/s
Width : 1 280 pixels
Height : 720 pixels
Display aspect ratio : 16:9
Frame rate mode : Constant
Frame rate : 23.976 (24000/1001) FPS
Color space : YUV
Chroma subsampling : 4:2:0
Bit depth : 8 bits
Scan type : Progressive
Bits/(Pixel*Frame) : 0.257
Stream size : 3.45 GiB (79%)
Writing library : x264 core 155 r2901 7d0ff22
Encoding settings : cabac=1 / ref=5 / deblock=1:0:0 / analyse=0x3:0x133 / me=umh / subme=7 / psy=1 / psy_rd=1.00:0.00 / mixed_ref=1 / me_range=16 / chroma_me=1 / trellis=2 / 8x8dct=1 / cqm=0 / deadzone=21,11 / fast_pskip=0 / chroma_qp_offset=-2 / threads=9 / lookahead_threads=1 / sliced_threads=0 / nr=0 / decimate=1 / interlaced=0 / bluray_compat=0 / constrained_intra=0 / bframes=3 / b_pyramid=2 / b_adapt=1 / b_bias=0 / direct=3 / weightb=1 / open_gop=0 / weightp=2 / keyint=250 / keyint_min=23 / scenecut=40 / intra_refresh=0 / rc_lookahead=50 / rc=2pass / mbtree=1 / bitrate=5676 / ratetol=1.0 / qcomp=0.60 / qpmin=0 / qpmax=69 / qpstep=4 / cplxblur=20.0 / qblur=0.5 / ip_ratio=1.40 / aq=1:1.00
Language : English
Default : Yes
Forced : No

Audio
ID : 2
Format : DTS
Format/Info : Digital Theater Systems
Mode : 16
Format settings, Endianness : Big
Codec ID : A_DTS
Duration : 1 h 27 min
Bit rate mode : Constant
Bit rate : 1 509 kb/s
Channel(s) : 6 channels
Channel positions : Front: L C R, Side: L R, LFE
Sampling rate : 48.0 kHz
Frame rate : 93.750 FPS (512 SPF)
Bit depth : 24 bits
Compression mode : Lossy
Stream size : 940 MiB (21%)
Title : DTS
Language : English
Default : Yes
Forced : No

Menu
00:00:00.000 : en:00:00:00.000
00:07:13.058 : en:00:07:13.058
00:15:04.320 : en:00:15:04.320
00:24:27.007 : en:00:24:27.007
00:32:08.927 : en:00:32:08.927
00:40:02.317 : en:00:40:02.317
00:47:22.381 : en:00:47:22.381
00:55:06.845 : en:00:55:06.845
01:02:26.242 : en:01:02:26.242
01:10:16.045 : en:01:10:16.045
01:16:37.426 : en:01:16:37.426
01:22:12.886 : en:01:22:12.886





A Beginner's Guide to Snuff (2016)


A Beginner's Guide to Snuff (2016)


A Beginner's Guide to Snuff (2016)


A Beginner's Guide to Snuff (2016)


A Beginner's Guide to Snuff (2016)