Tags
Language
Tags

A Funny Thing Happened on the Way to the Forum (1966)

Posted By: Tavaz
720p (HD) / BDRip IMDb
A Funny Thing Happened on the Way to the Forum (1966)

A Funny Thing Happened on the Way to the Forum (1966)
BDRip | MKV | 1280x694 | English | H264 @ 7048 kbps | FLAC @ 614 kbps | 1 h 37 min | 5.22 GiB
Subtitles: English
Genre: Comedy, Music

A wily slave must unite a virgin courtesan and his young smitten master to earn his freedom.

A.Funny.Thing.Happened.on.the.Way.to.the.Forum.1966.iNTERNAL.720p.BluRay.x264-PEGASUS.mkv (5.2 GB)



General
Unique ID : 277480045655820697623534232245382473544 (0xD0C0B67FF2F7D9BA062CDE8F9790E748)
Complete name : ./A.Funny.Thing.Happened.on.the.Way.to.the.Forum.1966.iNTERNAL.720p.BluRay.x264-PEGASUS.mkv
Format : Matroska
Format version : Version 4 / Version 2
File size : 5.22 GiB
Duration : 1 h 37 min
Overall bit rate mode : Variable
Overall bit rate : 7 677 kb/s
Movie name : A Funny Thing Happened on the Way to the Forum [1966] 720p BluRay - PEGASUS
Encoded date : UTC 2021-11-24 00:44:07
Writing application : mkvmerge v62.0.0 ('Apollo') 64-bit
Writing library : libebml v1.4.2 + libmatroska v1.6.4

Video
ID : 1
Format : AVC
Format/Info : Advanced Video Codec
Format profile : High@L4.1
Format settings : CABAC / 9 Ref Frames
Format settings, CABAC : Yes
Format settings, RefFrames : 9 frames
Codec ID : V_MPEG4/ISO/AVC
Duration : 1 h 37 min
Bit rate : 7 048 kb/s
Width : 1 280 pixels
Height : 694 pixels
Display aspect ratio : 1.85:1
Frame rate mode : Constant
Frame rate : 23.976 (24000/1001) FPS
Color space : YUV
Chroma subsampling : 4:2:0
Bit depth : 8 bits
Scan type : Progressive
Bits/(Pixel*Frame) : 0.331
Stream size : 4.79 GiB (92%)
Writing library : x264 core 163 r3059 b684ebe0
Encoding settings : cabac=1 / ref=9 / deblock=1:-3:-3 / analyse=0x3:0x133 / me=umh / subme=10 / psy=1 / psy_rd=1.00:0.00 / mixed_ref=1 / me_range=32 / chroma_me=1 / trellis=2 / 8x8dct=1 / cqm=0 / deadzone=21,11 / fast_pskip=0 / chroma_qp_offset=-2 / threads=22 / lookahead_threads=5 / sliced_threads=0 / nr=0 / decimate=0 / interlaced=0 / bluray_compat=0 / constrained_intra=0 / bframes=16 / b_pyramid=2 / b_adapt=2 / b_bias=0 / direct=3 / weightb=1 / open_gop=0 / weightp=2 / keyint=240 / keyint_min=24 / scenecut=40 / intra_refresh=0 / rc_lookahead=60 / rc=crf / mbtree=0 / crf=18.8 / qcomp=0.65 / qpmin=0 / qpmax=69 / qpstep=4 / vbv_maxrate=62500 / vbv_bufsize=78125 / crf_max=0.0 / nal_hrd=none / filler=0 / ip_ratio=1.40 / pb_ratio=1.30 / aq=2:0.80
Default : Yes
Forced : No
Color range : Limited
Color primaries : BT.709
Transfer characteristics : BT.709
Matrix coefficients : BT.709

Audio
ID : 2
Format : FLAC
Format/Info : Free Lossless Audio Codec
Codec ID : A_FLAC
Duration : 1 h 37 min
Bit rate mode : Variable
Bit rate : 614 kb/s
Channel(s) : 2 channels
Channel positions : Front: L R
Sampling rate : 48.0 kHz
Frame rate : 11.719 FPS (4096 SPF)
Bit depth : 16 bits
Delay relative to video : 11 s 11 ms
Stream size : 427 MiB (8%)
Writing library : libFLAC 1.2.1 (UTC 2007-09-17)
Language : English
Default : Yes
Forced : No

Text
ID : 3
Format : PGS
Muxing mode : zlib
Codec ID : S_HDMV/PGS
Codec ID/Info : Picture based subtitle format used on BDs/HD-DVDs
Duration : 1 h 34 min
Bit rate : 46.2 kb/s
Count of elements : 3094
Stream size : 31.1 MiB (1%)
Language : English
Default : No
Forced : No

Menu
00:00:11.011 : :Chapter 1
00:11:57.800 : :Chapter 2
00:25:27.443 : :Chapter 3
00:36:03.286 : :Chapter 4
00:48:45.381 : :Chapter 5
00:57:35.702 : :Chapter 6
01:12:00.775 : :Chapter 7
01:23:23.582 : :Chapter 8





A Funny Thing Happened on the Way to the Forum (1966)


A Funny Thing Happened on the Way to the Forum (1966)


A Funny Thing Happened on the Way to the Forum (1966)


A Funny Thing Happened on the Way to the Forum (1966)


A Funny Thing Happened on the Way to the Forum (1966)