A Separation (2011)

Posted By: Tavaz
SD / BDRip IMDb
A Separation (2011)

A Separation (2011)
BDRip | MKV | 854x462 | Persian / Persian | H264 @ 3526 kbps | AC-3 @ 448 kbps | 2 h 3 min | 3.50 GiB
Subtitles: Arabic, Persian, French, English
Genre: Drama

A married couple are faced with a difficult decision - to improve the life of their child by moving to another country or to stay in Iran and look after a deteriorating parent who has Alzheimer's disease.

573bd56acca44de5b00359411849f549.mkv (3.5 GB)



General
Complete name : ./573bd56acca44de5b00359411849f549.mkv
Format : Matroska
Format version : Version 4 / Version 2
File size : 3.50 GiB
Duration : 2 h 3 min
Overall bit rate : 4 073 kb/s
Encoded date : UTC 2018-03-30 06:38:59
Writing application : mkvmerge v21.0.0 ('Tardigrades Will Inherit The Earth') 64-bit
Writing library : libebml v1.3.5 + libmatroska v1.4.8

Video
ID : 1
Format : AVC
Format/Info : Advanced Video Codec
Format profile : High@L4.1
Format settings : CABAC / 16 Ref Frames
Format settings, CABAC : Yes
Format settings, RefFrames : 16 frames
Codec ID : V_MPEG4/ISO/AVC
Duration : 2 h 3 min
Bit rate : 3 526 kb/s
Width : 854 pixels
Height : 462 pixels
Display aspect ratio : 1.85:1
Frame rate mode : Constant
Frame rate : 23.976 (24000/1001) FPS
Color space : YUV
Chroma subsampling : 4:2:0
Bit depth : 8 bits
Scan type : Progressive
Bits/(Pixel*Frame) : 0.373
Stream size : 3.03 GiB (87%)
Writing library : x264 core 152 r2851 ba24899
Encoding settings : cabac=1 / ref=16 / deblock=1:-3:-3 / analyse=0x3:0x133 / me=tesa / subme=11 / psy=1 / psy_rd=1.15:0.00 / mixed_ref=1 / me_range=32 / chroma_me=1 / trellis=2 / 8x8dct=1 / cqm=0 / deadzone=21,11 / fast_pskip=0 / chroma_qp_offset=-2 / threads=12 / lookahead_threads=2 / sliced_threads=0 / nr=0 / decimate=0 / interlaced=0 / bluray_compat=0 / constrained_intra=0 / bframes=7 / b_pyramid=2 / b_adapt=2 / b_bias=0 / direct=3 / weightb=1 / open_gop=0 / weightp=2 / keyint=250 / keyint_min=23 / scenecut=40 / intra_refresh=0 / rc_lookahead=250 / rc=crf / mbtree=0 / crf=15.0 / qcomp=0.60 / qpmin=0 / qpmax=69 / qpstep=4 / vbv_maxrate=62500 / vbv_bufsize=78125 / crf_max=0.0 / nal_hrd=none / filler=0 / ip_ratio=1.30 / pb_ratio=1.20 / aq=1:0.60
Default : Yes
Forced : No
Color range : Limited
Matrix coefficients : BT.709

Audio #1
ID : 2
Format : AC-3
Format/Info : Audio Coding 3
Format settings, Endianness : Big
Codec ID : A_AC3
Duration : 2 h 3 min
Bit rate mode : Constant
Bit rate : 448 kb/s
Channel(s) : 3 channels
Channel positions : Front: L C R
Sampling rate : 48.0 kHz
Frame rate : 31.250 FPS (1536 SPF)
Bit depth : 16 bits
Compression mode : Lossy
Stream size : 394 MiB (11%)
Language : Persian
Service kind : Complete Main
Default : Yes
Forced : No

Audio #2
ID : 3
Format : AAC
Format/Info : Advanced Audio Codec
Format profile : LC
Codec ID : A_AAC-2
Duration : 2 h 3 min
Bit rate : 96.0 kb/s
Channel(s) : 2 channels
Channel positions : Front: L R
Sampling rate : 48.0 kHz
Frame rate : 46.875 FPS (1024 SPF)
Compression mode : Lossy
Delay relative to video : 62 ms
Stream size : 84.6 MiB (2%)
Title : Commentary by Director/Writer Asghar Farhadi
Language : Persian
Default : No
Forced : No

Text #1
ID : 4
Format : UTF-8
Codec ID : S_TEXT/UTF8
Codec ID/Info : UTF-8 Plain Text
Duration : 1 h 58 min
Bit rate : 54 b/s
Count of elements : 1684
Stream size : 47.5 KiB (0%)
Language : English
Default : Yes
Forced : No

Text #2
ID : 5
Format : UTF-8
Codec ID : S_TEXT/UTF8
Codec ID/Info : UTF-8 Plain Text
Duration : 1 h 57 min
Bit rate : 94 b/s
Count of elements : 1214
Stream size : 81.3 KiB (0%)
Language : Arabic
Default : No
Forced : No

Text #3
ID : 6
Format : UTF-8
Codec ID : S_TEXT/UTF8
Codec ID/Info : UTF-8 Plain Text
Duration : 1 h 58 min
Bit rate : 57 b/s
Count of elements : 1361
Stream size : 50.5 KiB (0%)
Language : French
Default : No
Forced : No

Text #4
ID : 7
Format : UTF-8
Codec ID : S_TEXT/UTF8
Codec ID/Info : UTF-8 Plain Text
Duration : 1 h 57 min
Bit rate : 115 b/s
Count of elements : 1466
Stream size : 99.9 KiB (0%)
Language : Persian
Default : No
Forced : No

Text #5
ID : 8
Format : UTF-8
Codec ID : S_TEXT/UTF8
Codec ID/Info : UTF-8 Plain Text
Duration : 2 h 0 min
Bit rate : 66 b/s
Count of elements : 1097
Stream size : 58.4 KiB (0%)
Title : Commentary by Director/Writer Asghar Farhadi
Language : English
Default : No
Forced : No

Menu
00:00:00.000 : en:Chapter 1
00:05:26.284 : en:Chapter 2
00:14:02.383 : en:Chapter 3
00:20:42.991 : en:Chapter 4
00:28:06.851 : en:Chapter 5
00:35:14.278 : en:Chapter 6
00:42:49.483 : en:Chapter 7
00:49:53.448 : en:Chapter 8
00:59:19.013 : en:Chapter 9
01:05:18.623 : en:Chapter 10
01:15:05.292 : en:Chapter 11
01:23:38.138 : en:Chapter 12
01:31:57.512 : en:Chapter 13
01:41:08.729 : en:Chapter 14
01:48:02.517 : en:Chapter 15
01:56:23.601 : en:Chapter 16





A Separation (2011)


A Separation (2011)


A Separation (2011)


A Separation (2011)


A Separation (2011)