A Criterion Film - A Brief History of Time (1991)

Posted By: notbanned
A Criterion Film - A Brief History of Time (1991)

A Criterion Film - A Brief History of Time (1991)
BluRay | 1332x720 | .MP4/AVC @ 3036 Kbps | 1h 24mn | Audio: English AAC 160 kbps, 2 channels | Subs: English | 1.88 GiB
Genre: Documentary | Biography

Errol Morris turns his camera on one of the most fascinating men in the world: the pioneering astrophysicist Stephen Hawking, afflicted by a debilitating motor neuron disease that has left him without a voice or the use of his limbs. An adroitly crafted tale of personal adversity, professional triumph, and cosmological inquiry, Morris’s documentary examines the way the collapse of Hawking’s body has been accompanied by the untrammeled broadening of his imagination. Telling the man’s incredible story through the voices of his colleagues and loved ones, while making dynamically accessible some of the theories in Hawking’s best-selling book of the same name, A Brief History of Time is at once as small as a single life and as big as the ever-expanding universe.
More info


General
Complete name : A.Brief.History.Of.Time.mp4
Format : MPEG-4
Format profile : Base Media
Codec ID : isom
File size : 1.88 GiB
Duration : 1h 24mn
Overall bit rate mode : Variable
Overall bit rate : 3 198 Kbps

Video
ID : 1
Format : AVC
Format/Info : Advanced Video Codec
Format profile : High@L4.1
Format settings, CABAC : No
Format settings, ReFrames : 1 frame
Format settings, GOP : M=1, N=12
Codec ID : avc1
Codec ID/Info : Advanced Video Coding
Duration : 1h 24mn
Bit rate : 3 036 Kbps
Maximum bit rate : 12.2 Mbps
Width : 1 332 pixels
Height : 720 pixels
Display aspect ratio : 16:9
Frame rate mode : Constant
Frame rate : 23.976 fps
Color space : YUV
Chroma subsampling : 4:2:0
Bit depth : 8 bits
Scan type : Progressive
Bits/(Pixel*Frame) : 0.132
Stream size : 1.78 GiB (95%)
Language : English
Encoded date : UTC 2015-01-15 14:55:45
Tagged date : UTC 2015-01-15 16:54:22

Audio
ID : 2
Format : AAC
Format/Info : Advanced Audio Codec
Format profile : LC
Codec ID : 40
Duration : 1h 24mn
Bit rate mode : Variable
Bit rate : 160 Kbps
Maximum bit rate : 249 Kbps
Channel(s) : 2 channels
Channel positions : Front: L R
Sampling rate : 48.0 KHz
Compression mode : Lossy
Stream size : 96.1 MiB (5%)
Language : English
Encoded date : UTC 2015-01-15 16:53:40
Tagged date : UTC 2015-01-15 16:54:22

Text
ID : 3
Format : Timed text
Codec ID : tx3g
Duration : 1h 23mn
Bit rate mode : Variable
Bit rate : 113 bps
Stream size : 69.4 KiB (0%)
Encoded date : UTC 2015-01-15 16:54:21
Tagged date : UTC 2015-01-15 16:54:22


Screenshots:

A Criterion Film - A Brief History of Time (1991)

A Criterion Film - A Brief History of Time (1991)

A Criterion Film - A Brief History of Time (1991)

A Criterion Film - A Brief History of Time (1991)