No Manifesto: A Film About Manic Street Preachers (2015)

Posted By: NaVi7
No Manifesto: A Film About Manic Street Preachers (2015)

No Manifesto: A Film About Manic Street Preachers (2015)
BRRip | MKV / AVC, 1645 Kbps | 720x400 | 1h 35mn | 1.4 GB
English: AC3, 448 Kbps (6 ch) | Subtitles: None
Genre: Documentary

In 1991, the Manic Street Preachers planned to sell 16 million copies of their debut and split up. Many years, many hits and one big mystery later, this colourful band and its fans appear in a unique documentary that tells their full story.

imdb

General
Unique ID : 238647214161692193597773770620279407844 (0xB389C81645E6212EA8AF81065E3744E4)
Complete name : No.Manifesto.A.Film.About.Manic.Street.Preachers.2015.BRRip.X264.AC3.mkv
Format : Matroska
Format version : Version 2
File size : 1.40 GiB
Duration : 1h 35mn
Overall bit rate : 2 103 Kbps
Encoded date : UTC 2015-02-18 15:35:12
Writing application : mkvmerge v7.0.0 ('Where We Going') 32bit built on Jun 9 2014 15:08:34
Writing library : libebml v1.3.0 + libmatroska v1.4.1
DURATION : 01:35:20.736000000
NUMBER_OF_FRAMES : 178773
NUMBER_OF_BYTES : 320361216
_STATISTICS_WRITING_APP : mkvmerge v7.0.0 ('Where We Going') 32bit built on Jun 9 2014 15:08:34
_STATISTICS_WRITING_DATE_UT : 2015-02-18 15:35:12
_STATISTICS_TAGS : BPS DURATION NUMBER_OF_FRAMES NUMBER_OF_BYTES

Video
ID : 1
Format : AVC
Format/Info : Advanced Video Codec
Format profile : High@L4.1
Format settings, CABAC : Yes
Format settings, ReFrames : 5 frames
Codec ID : V_MPEG4/ISO/AVC
Duration : 1h 35mn
Bit rate : 1 645 Kbps
Width : 720 pixels
Height : 400 pixels
Display aspect ratio : 16:9
Frame rate mode : Constant
Frame rate : 23.976 fps
Color space : YUV
Chroma subsampling : 4:2:0
Bit depth : 8 bits
Scan type : Progressive
Bits/(Pixel*Frame) : 0.238
Stream size : 1.07 GiB (77%)
Writing library : x264 core 142 r2431 ac76440
Encoding settings : cabac=1 / ref=5 / deblock=1:0:0 / analyse=0x3:0x3 / me=dia / subme=1 / psy=1 / psy_rd=1.00:0.00 / mixed_ref=0 / me_range=16 / chroma_me=1 / trellis=0 / 8x8dct=1 / cqm=0 / deadzone=21,11 / fast_pskip=1 / chroma_qp_offset=0 / threads=48 / lookahead_threads=3 / sliced_threads=0 / nr=0 / decimate=1 / interlaced=0 / bluray_compat=0 / constrained_intra=0 / bframes=3 / b_pyramid=2 / b_adapt=1 / b_bias=0 / direct=1 / weightb=1 / open_gop=0 / weightp=1 / keyint=240 / keyint_min=23 / scenecut=40 / intra_refresh=0 / rc_lookahead=0 / rc=abr / mbtree=0 / bitrate=1645 / ratetol=1.0 / qcomp=0.60 / qpmin=0 / qpmax=69 / qpstep=4 / vbv_maxrate=62500 / vbv_bufsize=78125 / nal_hrd=none / filler=0 / ip_ratio=1.40 / pb_ratio=1.30 / aq=1:1.00
Default : Yes
Forced : No

Audio
ID : 2
Format : AC-3
Format/Info : Audio Coding 3
Mode extension : CM (complete main)
Format settings, Endianness : Big
Codec ID : A_AC3
Duration : 1h 35mn
Bit rate mode : Constant
Bit rate : 448 Kbps
Channel(s) : 6 channels
Channel positions : Front: L C R, Side: L R, LFE
Sampling rate : 48.0 KHz
Bit depth : 16 bits
Compression mode : Lossy
Delay relative to video : 71ms
Stream size : 306 MiB (21%)
Language : English
Default : Yes
Forced : No


screenshots:

No Manifesto: A Film About Manic Street Preachers (2015)

No Manifesto: A Film About Manic Street Preachers (2015)

No Manifesto: A Film About Manic Street Preachers (2015)