A Firehouse Christmas (2016)

Posted By: Without
SD / DVDRip IMDb
A Firehouse Christmas (2016)

A Firehouse Christmas (2016)
DVDRip | MKV | 720x406 | AVC@1099 kb/s | English AAC@113 kb/s
2 channels | 1 h 30 min | 785 MB
Genre: Drama, Romance

Firefighter Jenny falls in love with local star Tom but his ex-wife and celebrity figure skating Mary is asking him to choose between reconciling or going through an ugly custody battle. With her natural warmth and kindness to the community Jenny starts to convince everybody that her love for Tom is real. Mary's fierceness is more powerful than anything Jenny has ever faced before. Who will Tom choose in the end?



General
A.Firehouse.Christmas.2016.DVDRip.x264-FRAGMENT\a.firehouse.christmas.2016.dvdrip.x264.fragment.mkv
Format : Matroska
Format version : Version 4 / Version 2
File size : 785 MiB
Duration : 1 h 30 min
Overall bit rate : 1 215 kb/s
Encoded date : UTC 2017-11-25 21:52:14
Writing application : mkvmerge v17.0.0 ('Be Ur Friend') 64-bit
Writing library : libebml v1.3.5 + libmatroska v1.4.8

Video
ID : 2
Format : AVC
Format/Info : Advanced Video Codec
Format profile : High@L3.1
Format settings, CABAC : Yes
Format settings, ReFrames : 5 frames
Codec ID : V_MPEG4/ISO/AVC
Duration : 1 h 30 min
Bit rate : 1 099 kb/s
Width : 720 pixels
Height : 406 pixels
Display aspect ratio : 16:9
Frame rate mode : Constant
Frame rate : 23.976 (24000/1001) FPS
Color space : YUV
Chroma subsampling : 4:2:0
Bit depth : 8 bits
Scan type : Progressive
Bits/(Pixel*Frame) : 0.157
Stream size : 711 MiB (90%)
Writing library : x264 core 152 r2851 ba24899
Encoding settings : cabac=1 / ref=5 / deblock=1:0:0 / analyse=0x3:0x113 / me=hex / subme=8 / psy=1 / psy_rd=1.00:0.00 / mixed_ref=1 / me_range=16 / chroma_me=1 / trellis=2 / 8x8dct=1 / cqm=0 / deadzone=21,11 / fast_pskip=1 / chroma_qp_offset=-2 / threads=12 / lookahead_threads=2 / sliced_threads=0 / nr=0 / decimate=1 / interlaced=0 / bluray_compat=0 / constrained_intra=0 / bframes=3 / b_pyramid=2 / b_adapt=1 / b_bias=0 / direct=3 / weightb=1 / open_gop=0 / weightp=2 / keyint=250 / keyint_min=23 / scenecut=40 / intra_refresh=0 / rc_lookahead=50 / rc=crf / mbtree=1 / crf=19.0 / qcomp=0.60 / qpmin=0 / qpmax=69 / qpstep=4 / ip_ratio=1.40 / aq=1:1.00
Language : English
Default : Yes
Forced : No

Audio
ID : 1
Format : AAC
Format/Info : Advanced Audio Codec
Format profile : LC
Codec ID : A_AAC
Duration : 1 h 30 min
Bit rate : 113 kb/s
Channel(s) : 2 channels
Channel positions : Front: L R
Sampling rate : 48.0 kHz
Frame rate : 46.875 FPS (1024 spf)
Compression mode : Lossy
Delay relative to video : 9 ms
Stream size : 73.3 MiB (9%)
Default : Yes
Forced : No

Menu
00:00:00.054 : en:00:00:00.054


DVDRip Screenshots

A Firehouse Christmas (2016)

A Firehouse Christmas (2016)

A Firehouse Christmas (2016)


Come Visit My Blog (•‿•)