A Woman of Paris: A Drama of Fate (1923) [The Chaplin Collection]

Posted By: AvaxAnoosh
A Woman of Paris: A Drama of Fate (1923) [The Chaplin Collection]

A Woman of Paris: A Drama of Fate (1923) [The Chaplin Collection]
Language: English | Subs: Spanish, Portuguese, French, Chinese, Korean, Thai
DVDRip | 1h 17mn | MKV | x264 @1,800 Kbps 23.976 fps | 640 x 480 | AC3 @448 Kbps 6chnls 48kHz | 1.3 GB
Genre: Drama | Romance | Country: USA

Marie St. Clair believes she has been jilted by her artist fiance Jean when he fails to meet her at the railway station. She goes off to Paris alone. A year later, mistress of wealthy Pierre Revel, she meets Jean again. Misinterpreting events she bounces back and forth between apparent security and true love. Also misinterpreting, Jean commits suicide.

IMDb: http://www.imdb.com/title/tt0014624/
Director & Writer: Charles Chaplin
Stars: Edna Purviance, Clarence Geldart, Carl Miller

General
Unique ID : 159805299033088930418767265631964108008 (0x7839618DAB72433E61BD65B5041E14E8)
Complete name : A.Woman.of.Paris.A.Drama.of.Fate.1923.DVDRip.x264-NoRBiT.mkv
Format : Matroska
Format version : Version 2
File size : 1.23 GiB
Duration : 1h 17mn
Overall bit rate : 2 260 Kbps
Writing application : HandBrake 0.9.8
Writing library : libmkv 0.6.5

Video
ID : 1
Format : AVC
Format/Info : Advanced Video Codec
Format profile : High@L3.1
Format settings, CABAC : Yes
Format settings, ReFrames : 9 frames
Codec ID : V_MPEG4/ISO/AVC
Duration : 1h 17mn
Bit rate : 1 800 Kbps
Width : 640 pixels
Height : 480 pixels
Display aspect ratio : 4:3
Frame rate mode : Constant
Frame rate : 23.976 fps
Color space : YUV
Chroma subsampling : 4:2:0
Bit depth : 8 bits
Scan type : Progressive
Bits/(Pixel*Frame) : 0.244
Stream size : 984 MiB (78%)
Writing library : x264 core 120
Encoding settings : cabac=1 / ref=9 / deblock=1:-2:-2 / analyse=0x3:0x113 / me=umh / subme=9 / psy=1 / psy_rd=1.00:0.00 / mixed_ref=1 / me_range=24 / chroma_me=1 / trellis=2 / 8x8dct=1 / cqm=0 / deadzone=21,11 / fast_pskip=1 / chroma_qp_offset=-2 / threads=6 / sliced_threads=0 / nr=0 / decimate=1 / interlaced=0 / bluray_compat=0 / constrained_intra=0 / bframes=5 / b_pyramid=2 / b_adapt=2 / b_bias=0 / direct=3 / weightb=1 / open_gop=0 / weightp=2 / keyint=240 / keyint_min=24 / scenecut=40 / intra_refresh=0 / rc_lookahead=60 / rc=2pass / mbtree=1 / bitrate=1800 / ratetol=1.0 / qcomp=0.60 / qpmin=3 / qpmax=69 / qpstep=4 / cplxblur=20.0 / qblur=0.5 / ip_ratio=1.40 / aq=1:1.00
Language : English
Default : Yes
Forced : No
Color primaries : BT.601 NTSC
Transfer characteristics : BT.709
Matrix coefficients : BT.601

Audio
ID : 2
Format : AC-3
Format/Info : Audio Coding 3
Mode extension : CM (complete main)
Format settings, Endianness : Big
Codec ID : A_AC3
Duration : 1h 17mn
Bit rate mode : Constant
Bit rate : 448 Kbps
Channel(s) : 6 channels
Channel positions : Front: L C R, Side: L R, LFE
Sampling rate : 48.0 KHz
Bit depth : 16 bits
Compression mode : Lossy
Stream size : 249 MiB (20%)
Language : English
Default : Yes
Forced : No

Text #1
ID : 3
Format : VobSub
Codec ID : S_VOBSUB
Codec ID/Info : The same subtitle format used on DVDs
Language : Spanish
Default : No
Forced : No

Text #2
ID : 4
Format : VobSub
Codec ID : S_VOBSUB
Codec ID/Info : The same subtitle format used on DVDs
Language : Portuguese
Default : No
Forced : No

Text #3
ID : 5
Format : VobSub
Codec ID : S_VOBSUB
Codec ID/Info : The same subtitle format used on DVDs
Language : French
Default : No
Forced : No

Text #4
ID : 6
Format : VobSub
Codec ID : S_VOBSUB
Codec ID/Info : The same subtitle format used on DVDs
Language : Chinese
Default : No
Forced : No

Text #5
ID : 7
Format : VobSub
Codec ID : S_VOBSUB
Codec ID/Info : The same subtitle format used on DVDs
Language : Korean
Default : No
Forced : No

Text #6
ID : 8
Format : VobSub
Codec ID : S_VOBSUB
Codec ID/Info : The same subtitle format used on DVDs
Language : Thai
Default : No
Forced : No

Menu
00:00:00.000 : Chapter 1
00:01:04.564 : Chapter 2
00:06:47.907 : Chapter 3
00:09:50.256 : Chapter 4
00:15:34.725 : Chapter 5
00:21:38.964 : Chapter 6
00:27:01.620 : Chapter 7
00:29:39.569 : Chapter 8
00:32:47.757 : Chapter 9
00:36:51.667 : Chapter 10
00:41:27.943 : Chapter 11
00:44:35.464 : Chapter 12
00:50:55.802 : Chapter 13
00:53:56.024 : Chapter 14
00:58:48.733 : Chapter 15
01:03:30.473 : Chapter 16
01:05:43.731 : Chapter 17
01:10:25.846 : Chapter 18
01:13:54.555 : Chapter 19
01:16:08.105 : Chapter 20



Screenshot:

A Woman of Paris: A Drama of Fate (1923) [The Chaplin Collection]


No Mirrors Please!

Private Message me If the Links are Dead.


Visit My Blog For All Latest Movies!