Tags
Language
Tags

AC/DC: Let There Be Rock (1980)

Posted By: RSU75
720p (HD) / BDRip IMDb
AC/DC: Let There Be Rock (1980)

AC/DC: Let There Be Rock (1980)
BDRip 720p | MKV | AVC, 988x720, ~ 2.6 Mbps | 1hr 37mn | 2.23 GB
English: AC3, 6 ch, 448 kbps \ English: AC3, 2 ch, 192 kbps
Subtitles: Japanese, English, French, German, Italian, Spanish, Korean, Spanish, Czech, Polish, Portuguese, Turkish
Genre: Documentary, Music



Stars: AC/DC, Phil Rudd, Bon Scott

Filmed coverage of Australian band AC/DC's '79 appearance in Paris intercut with quasi-fictional interludes.

Tracklist:
1. Live Wire
2. Shot Down in Flames
3. Hell Ain't a Bad Place to Be
4. Sin City
5. Walk All Over You
6. Bad Boy Boogie
7. The Jack
8. Highway to Hell
9. Girls Got Rhythm
10. High Voltage
11. Whole Lotta Rosie
12. Rocker
13. Let There Be Rock




General
Unique ID : 222041147169744605296694871521680398115 (0xA70B91C5A4664F518C6FF71E220B9723)
Complete name : F:\AcDC.LetThereBeRock.1980.7p.mkv
Format : Matroska
Format version : Version 4
File size : 2.23 GiB
Duration : 1 h 37 min
Overall bit rate : 3 260 kb/s
Movie name : Release RSU75 for the Bestmoviesworld.xyz
Encoded date : UTC 2022-03-19 04:46:53
Writing application : mkvmerge v8.3.0 ('Over the Horizon') 64bit
Writing library : libebml v1.3.1 + libmatroska v1.4.2

Video
ID : 1
Format : AVC
Format/Info : Advanced Video Codec
Format profile : High@L4.1
Format settings : CABAC / 4 Ref Frames
Format settings, CABAC : Yes
Format settings, Reference fra : 4 frames
Codec ID : V_MPEG4/ISO/AVC
Duration : 1 h 37 min
Bit rate : 2 600 kb/s
Width : 988 pixels
Height : 720 pixels
Display aspect ratio : 1.371
Original display aspect ratio : 1.370
Frame rate mode : Constant
Frame rate : 23.976 (23976/1000) FPS
Color space : YUV
Chroma subsampling : 4:2:0
Bit depth : 8 bits
Scan type : Progressive
Bits/(Pixel*Frame) : 0.152
Stream size : 1.75 GiB (79%)
Writing library : x264 core 148 r2643 5c65704
Encoding settings : cabac=1 / ref=4 / deblock=1:0:0 / analyse=0x3:0x113 / me=umh / subme=8 / psy=1 / psy_rd=1.00:0.00 / mixed_ref=1 / me_range=24 / chroma_me=1 / trellis=1 / 8x8dct=1 / cqm=0 / deadzone=21,11 / fast_pskip=1 / chroma_qp_offset=-2 / threads=3 / lookahead_threads=1 / sliced_threads=0 / nr=0 / decimate=1 / interlaced=0 / bluray_compat=0 / constrained_intra=0 / bframes=3 / b_pyramid=0 / b_adapt=2 / b_bias=0 / direct=3 / weightb=1 / open_gop=0 / weightp=2 / keyint=250 / keyint_min=25 / scenecut=40 / intra_refresh=0 / rc_lookahead=40 / rc=abr / mbtree=1 / bitrate=2600 / ratetol=1.0 / qcomp=0.60 / qpmin=10 / qpmax=51 / qpstep=4 / ip_ratio=1.41 / aq=1:1.00
Language : English
Default : Yes
Forced : No

Audio #1
ID : 2
Format : AC-3
Format/Info : Audio Coding 3
Commercial name : Dolby Digital
Codec ID : A_AC3
Duration : 1 h 37 min
Bit rate mode : Constant
Bit rate : 448 kb/s
Channel(s) : 6 channels
Channel layout : L R C LFE Ls Rs
Sampling rate : 48.0 kHz
Frame rate : 31.250 FPS (1536 SPF)
Compression mode : Lossy
Stream size : 314 MiB (14%)
Title : Surround 5.1
Language : English
Service kind : Complete Main
Default : Yes
Forced : No

Audio #2
ID : 3
Format : AC-3
Format/Info : Audio Coding 3
Commercial name : Dolby Digital
Codec ID : A_AC3
Duration : 1 h 37 min
Bit rate mode : Constant
Bit rate : 192 kb/s
Channel(s) : 2 channels
Channel layout : L R
Sampling rate : 48.0 kHz
Frame rate : 31.250 FPS (1536 SPF)
Compression mode : Lossy
Stream size : 134 MiB (6%)
Title : Stereo
Language : English
Service kind : Complete Main
Default : No
Forced : No

Text #1
ID : 4
Format : PGS
Muxing mode : zlib
Codec ID : S_HDMV/PGS
Codec ID/Info : Picture based subtitle format used on BDs/HD-DVDs
Duration : 1 h 37 min
Bit rate : 8 423 b/s
Count of elements : 1562
Stream size : 5.86 MiB (0%)
Language : English
Default : No
Forced : No

Text #2
ID : 5
Format : PGS
Muxing mode : zlib
Codec ID : S_HDMV/PGS
Codec ID/Info : Picture based subtitle format used on BDs/HD-DVDs
Duration : 1 h 37 min
Bit rate : 2 376 b/s
Count of elements : 480
Stream size : 1.65 MiB (0%)
Language : French
Default : No
Forced : No

Text #3
ID : 6
Format : PGS
Muxing mode : zlib
Codec ID : S_HDMV/PGS
Codec ID/Info : Picture based subtitle format used on BDs/HD-DVDs
Duration : 1 h 37 min
Bit rate : 8 322 b/s
Count of elements : 1566
Stream size : 5.79 MiB (0%)
Language : German
Default : No
Forced : No

Text #4
ID : 7
Format : PGS
Muxing mode : zlib
Codec ID : S_HDMV/PGS
Codec ID/Info : Picture based subtitle format used on BDs/HD-DVDs
Duration : 1 h 37 min
Bit rate : 8 314 b/s
Count of elements : 1562
Stream size : 5.79 MiB (0%)
Language : Italian
Default : No
Forced : No

Text #5
ID : 8
Format : PGS
Muxing mode : zlib
Codec ID : S_HDMV/PGS
Codec ID/Info : Picture based subtitle format used on BDs/HD-DVDs
Duration : 1 h 37 min
Bit rate : 2 814 b/s
Count of elements : 510
Stream size : 1.96 MiB (0%)
Language : Spanish
Default : No
Forced : No

Text #6
ID : 9
Format : PGS
Muxing mode : zlib
Codec ID : S_HDMV/PGS
Codec ID/Info : Picture based subtitle format used on BDs/HD-DVDs
Duration : 1 h 37 min
Bit rate : 2 060 b/s
Count of elements : 516
Stream size : 1.43 MiB (0%)
Language : Korean
Default : No
Forced : No

Text #7
ID : 10
Format : PGS
Muxing mode : zlib
Codec ID : S_HDMV/PGS
Codec ID/Info : Picture based subtitle format used on BDs/HD-DVDs
Duration : 1 h 37 min
Bit rate : 2 831 b/s
Count of elements : 508
Stream size : 1.96 MiB (0%)
Language : Spanish
Default : No
Forced : No

Text #8
ID : 11
Format : PGS
Muxing mode : zlib
Codec ID : S_HDMV/PGS
Codec ID/Info : Picture based subtitle format used on BDs/HD-DVDs
Duration : 1 h 37 min
Bit rate : 2 256 b/s
Count of elements : 410
Stream size : 1.57 MiB (0%)
Language : Czech
Default : No
Forced : No

Text #9
ID : 12
Format : PGS
Muxing mode : zlib
Codec ID : S_HDMV/PGS
Codec ID/Info : Picture based subtitle format used on BDs/HD-DVDs
Duration : 1 h 35 min
Bit rate : 2 129 b/s
Count of elements : 400
Stream size : 1.46 MiB (0%)
Language : Polish
Default : No
Forced : No

Text #10
ID : 13
Format : PGS
Muxing mode : zlib
Codec ID : S_HDMV/PGS
Codec ID/Info : Picture based subtitle format used on BDs/HD-DVDs
Duration : 1 h 37 min
Bit rate : 2 851 b/s
Count of elements : 516
Stream size : 1.99 MiB (0%)
Language : Portuguese
Default : No
Forced : No

Text #11
ID : 14
Format : PGS
Muxing mode : zlib
Codec ID : S_HDMV/PGS
Codec ID/Info : Picture based subtitle format used on BDs/HD-DVDs
Duration : 1 h 37 min
Bit rate : 2 412 b/s
Count of elements : 514
Stream size : 1.68 MiB (0%)
Language : Turkish
Default : No
Forced : No

Text #12
ID : 15
Format : PGS
Muxing mode : zlib
Codec ID : S_HDMV/PGS
Codec ID/Info : Picture based subtitle format used on BDs/HD-DVDs
Duration : 1 h 34 min
Bit rate : 2 464 b/s
Count of elements : 498
Stream size : 1.66 MiB (0%)
Language : Japanese
Default : No
Forced : No

Text #13
ID : 16
Format : PGS
Muxing mode : zlib
Codec ID : S_HDMV/PGS
Codec ID/Info : Picture based subtitle format used on BDs/HD-DVDs
Duration : 1 h 37 min
Bit rate : 8 423 b/s
Count of elements : 1562
Stream size : 5.86 MiB (0%)
Language : English
Default : No
Forced : No

Menu
00:00:00.000 : en:Chapter 01
00:00:19.019 : en:Chapter 02
00:04:38.528 : en:Chapter 03
00:08:33.596 : en:Chapter 04
00:09:43.624 : en:Chapter 05
00:16:04.672 : en:Chapter 06
00:19:40.137 : en:Chapter 07
00:23:50.429 : en:Chapter 08
00:29:44.991 : en:Chapter 09
00:35:17.240 : en:Chapter 10
00:48:15.517 : en:Chapter 11
00:53:54.189 : en:Chapter 12
00:56:12.243 : en:Chapter 13
00:59:22.350 : en:Chapter 14
01:02:48.765 : en:Chapter 15
01:09:02.555 : en:Chapter 16
01:13:37.371 : en:Chapter 17
01:18:41.550 : en:Chapter 18
01:28:01.567 : en:Chapter 19
01:35:12.415 : en:Chapter 20



Screenshots (click to enlarge to original size):

AC/DC: Let There Be Rock (1980)






More in My Blog



If you like this release please visit my blog
In it you will find Music and other releases