Nebraska (1970)

Posted By: Tavaz
SD / WEBRip IMDb
Nebraska (1970)

Nebraska (1970)
MKV | 1920x824 | English | H264 @ 7801 kbps | DTS @ 1509 kbps | 1 h 45 min | 6.84 GiB
Subtitles: Dutch
Genre: Action, War, Western

Master gunslinger Sabata helps some Mexican revolutionaries steal a wagonload of gold.

Adios Sabata 1970 1080p BluRay H264 DTS.x264.Subs.NL.mkv (6.8 GB)



General
Unique ID : 228568408372094669967562965214682733477 (0xABF4AC98888BD9275B4DBA1D9AECDBA5)
Complete name : ./Adios Sabata 1970 1080p BluRay H264 DTS.x264.Subs.NL.mkv
Format : Matroska
Format version : Version 4 / Version 2
File size : 6.84 GiB
Duration : 1 h 45 min
Overall bit rate : 9 313 kb/s
Encoded date : UTC 2017-12-18 20:44:36
Writing application : mkvmerge v19.0.0 ('Brave Captain') 32-bit
Writing library : libebml v1.3.5 + libmatroska v1.4.8
Cover : Yes
Attachments : cover.png

Video
ID : 1
Format : AVC
Format/Info : Advanced Video Codec
Format profile : High@L4.1
Format settings : CABAC / 5 Ref Frames
Format settings, CABAC : Yes
Format settings, RefFrames : 5 frames
Codec ID : V_MPEG4/ISO/AVC
Duration : 1 h 45 min
Bit rate : 7 801 kb/s
Width : 1 920 pixels
Height : 824 pixels
Display aspect ratio : 2.35:1
Frame rate mode : Constant
Frame rate : 23.976 (24000/1001) FPS
Color space : YUV
Chroma subsampling : 4:2:0
Bit depth : 8 bits
Scan type : Progressive
Bits/(Pixel*Frame) : 0.206
Stream size : 5.73 GiB (84%)
Writing library : x264 core 146 r2538 121396c
Encoding settings : cabac=1 / ref=5 / deblock=1:-1:-1 / analyse=0x3:0x133 / me=umh / subme=7 / psy=1 / psy_rd=1.00:0.15 / mixed_ref=1 / me_range=16 / chroma_me=1 / trellis=1 / 8x8dct=1 / cqm=0 / deadzone=21,11 / fast_pskip=0 / chroma_qp_offset=-3 / threads=6 / lookahead_threads=1 / sliced_threads=0 / nr=0 / decimate=1 / interlaced=0 / bluray_compat=0 / constrained_intra=0 / bframes=3 / b_pyramid=2 / b_adapt=1 / b_bias=0 / direct=1 / weightb=1 / open_gop=0 / weightp=2 / keyint=250 / keyint_min=23 / scenecut=40 / intra_refresh=0 / rc_lookahead=40 / rc=2pass / mbtree=1 / bitrate=7801 / ratetol=1.0 / qcomp=0.60 / qpmin=0 / qpmax=69 / qpstep=4 / cplxblur=20.0 / qblur=0.5 / ip_ratio=1.40 / aq=1:1.00
Default : Yes
Forced : No

Audio
ID : 2
Format : DTS
Format/Info : Digital Theater Systems
Mode : 16
Format settings, Endianness : Big
Codec ID : A_DTS
Duration : 1 h 45 min
Bit rate mode : Constant
Bit rate : 1 509 kb/s
Channel(s) : 2 channels
Channel positions : Front: L R
Sampling rate : 48.0 kHz
Frame rate : 93.750 FPS (512 SPF)
Bit depth : 16 bits
Compression mode : Lossy
Stream size : 1.11 GiB (16%)
Language : English
Default : No
Forced : No

Text
ID : 3
Format : UTF-8
Codec ID : S_TEXT/UTF8
Codec ID/Info : UTF-8 Plain Text
Duration : 1 h 44 min
Bit rate : 27 b/s
Count of elements : 536
Stream size : 20.8 KiB (0%)
Language : Dutch
Default : Yes
Forced : No

Menu
00:00:00.000 : en:00:00:00.000
00:08:24.504 : en:00:08:24.504
00:16:14.974 : en:00:16:14.974
00:28:50.729 : en:00:28:50.729
00:33:12.991 : en:00:33:12.991
00:41:24.482 : en:00:41:24.482
00:53:46.223 : en:00:53:46.223
01:00:11.608 : en:01:00:11.608
01:07:45.061 : en:01:07:45.061
01:17:50.666 : en:01:17:50.666
01:24:41.076 : en:01:24:41.076
01:32:08.523 : en:01:32:08.523





Nebraska (1970)


Nebraska (1970)


Nebraska (1970)


Nebraska (1970)


Nebraska (1970)