Agnelli (2017)

Posted By: Tavaz
720p (HD) / WEBRip IMDb
Agnelli (2017)

Agnelli (2017)
WEBRip | MKV | 1280x720 | Spanish | H264 @ 2095 kbps | AC-3 @ 384 kbps | 1 h 39 min | 1.72 GiB
Subtitles: English, Spanish
Genre: Documentary

The story of Gianni Agnelli, the legendary Italian industrialist and playboy, as told by family, lovers, professional confidants, and rivals.

agnelli.2017.spanish.doc.720p.web.h264-4fire.sample.mkv (15.6 MB)
Agnelli.2017.SPANiSH.DOC.720p.WEB.h264-4FiRE.mkv (1.7 GB)



General
Unique ID : 205358194740557845858992933476091210168 (0x9A7E8CB65C8695C9E9D51461A04AA9B8)
Complete name : ./Agnelli.2017.SPANiSH.DOC.720p.WEB.h264-4FiRE.mkv
Format : Matroska
Format version : Version 4 / Version 2
File size : 1.72 GiB
Duration : 1 h 39 min
Overall bit rate mode : Variable
Overall bit rate : 2 482 kb/s
Encoded date : UTC 2019-04-14 17:12:32
Writing application : mkvmerge v33.0.0 ('A Little Bit of Madness') 64-bit
Writing library : libebml v1.3.7 + libmatroska v1.5.0

Video
ID : 1
Format : AVC
Format/Info : Advanced Video Codec
Format profile : Main@L3.1
Format settings : CABAC / 4 Ref Frames
Format settings, CABAC : Yes
Format settings, RefFrames : 4 frames
Codec ID : V_MPEG4/ISO/AVC
Duration : 1 h 39 min
Bit rate mode : Variable
Bit rate : 2 096 kb/s
Maximum bit rate : 3 300 kb/s
Width : 1 280 pixels
Height : 720 pixels
Display aspect ratio : 16:9
Frame rate mode : Constant
Frame rate : 25.000 FPS
Color space : YUV
Chroma subsampling : 4:2:0
Bit depth : 8 bits
Scan type : Progressive
Bits/(Pixel*Frame) : 0.091
Stream size : 1.46 GiB (84%)
Default : Yes
Forced : No

Audio
ID : 2
Format : AC-3
Format/Info : Audio Coding 3
Format settings, Endianness : Big
Codec ID : A_AC3
Duration : 1 h 39 min
Bit rate mode : Constant
Bit rate : 384 kb/s
Channel(s) : 6 channels
Channel positions : Front: L C R, Side: L R, LFE
Sampling rate : 48.0 kHz
Frame rate : 31.250 FPS (1536 SPF)
Bit depth : 16 bits
Compression mode : Lossy
Stream size : 273 MiB (15%)
Title : Castellano
Language : Spanish
Service kind : Complete Main
Default : Yes
Forced : No

Text #1
ID : 3
Format : UTF-8
Codec ID : S_TEXT/UTF8
Codec ID/Info : UTF-8 Plain Text
Duration : 1 h 38 min
Bit rate : 73 b/s
Count of elements : 1262
Stream size : 53.2 KiB (0%)
Title : Castellano [Completos]
Language : Spanish
Default : No
Forced : No

Text #2
ID : 4
Format : UTF-8
Codec ID : S_TEXT/UTF8
Codec ID/Info : UTF-8 Plain Text
Duration : 1 h 38 min
Bit rate : 59 b/s
Count of elements : 1175
Stream size : 43.2 KiB (0%)
Title : Inglés [Completos]
Language : English
Default : No
Forced : No





Agnelli (2017)


Agnelli (2017)


Agnelli (2017)


Agnelli (2017)


Agnelli (2017)