Agon Arts - The Rape of Europa (2010)

Posted By: Polik88
Agon Arts - The Rape of Europa (2010)

Agon Arts - The Rape of Europa (2010)
English | MP4 | 832x468 | AVC 1610 Kbps 25.000 fps | AC3 128 Kbps 48.0 khz | 1h 56mn | 1.41 GB
Genre: Documentary

As seen on National Geographic Channel with the name Nazi Art Theft. World War II was not just the most destructive conflict in humanity; it was also the greatest theft in history: lives, families, communities, property, culture and heritage were all stolen. The Emmy Award-nominated documentary film, The Rape of Europa, narrated by Academy Award-nominee Joan Allen, is the epic story of the systematic theft, deliberate destruction and miraculous survival of many of Europe s art treasures during the Third Reich and the Second World War. In a journey through seven countries, The Rape of Europa takes the audience into the violent whirlwind of fanaticism, greed, and warfare that threatened to wipe out the artistic heritage of Europe. For twelve long years, the Nazis looted and destroyed art on a scale unprecedented in history. But young art professionals as well as ordinary heroes, from truck drivers to department store clerks, fought back with an extraordinary effort to safeguard, rescue and return the millions of lost, hidden and stolen treasures. The Rape of Europa addresses the questions of our time about the role of art in defining culture, and our shared responsibility to protect it. The film is an emotional witness to the destruction wrought on culture and art by fanaticism, greed, and warfare. But it is also a hopeful film that demonstrates how it is possible for humanity to protect the integrity of cultural property in armed conflicts.
General
Complete name : The.Rape.of.Europa.mp4
Format : MPEG-4
Format profile : Base Media
Codec ID : isom
File size : 1.41 GiB
Duration : 1h 56mn
Overall bit rate : 1 740 Kbps
Encoded date : UTC 2013-01-23 14:20:37
Tagged date : UTC 2013-01-23 14:20:37
Writing application : Lavf51.12.1

Video
ID : 1
Format : AVC
Format/Info : Advanced Video Codec
Format profile : High@L3.0
Format settings, CABAC : No
Format settings, ReFrames : 1 frame
Format settings, GOP : M=1, N=12
Codec ID : avc1
Codec ID/Info : Advanced Video Coding
Duration : 1h 56mn
Bit rate : 1 610 Kbps
Width : 832 pixels
Height : 468 pixels
Display aspect ratio : 16:9
Frame rate mode : Constant
Frame rate : 25.000 fps
Color space : YUV
Chroma subsampling : 4:2:0
Bit depth : 8 bits
Scan type : Progressive
Bits/(Pixel*Frame) : 0.165
Stream size : 1.31 GiB (92%)
Encoded date : UTC 2013-01-23 14:20:37
Tagged date : UTC 2013-01-23 14:20:37

Audio
ID : 2
Format : AC-3
Format/Info : Audio Coding 3
Mode extension : CM (complete main)
Format settings, Endianness : Big
Codec ID : ac-3
Duration : 1h 56mn
Bit rate mode : Constant
Bit rate : 128 Kbps
Channel(s) : 2 channels
Channel positions : Front: L R
Sampling rate : 48.0 KHz
Bit depth : 16 bits
Compression mode : Lossy
Stream size : 106 MiB (7%)
Encoded date : UTC 2013-01-23 14:20:37
Tagged date : UTC 2013-01-23 14:20:37

Screenshots

Agon Arts - The Rape of Europa (2010)

Agon Arts - The Rape of Europa (2010)

Agon Arts - The Rape of Europa (2010)

no mirrors please, Follow The Rules
Visit Polik88 Blog Here
no password