Ailo's Journey (2018)

Posted By: Tavaz
1080p (FullHD) / BDRip IMDb
Ailo's Journey (2018)

Ailo's Journey (2018)
BDRip | MKV | 1920x808 | Finnish | H264 @ 11927 kbps | DTS @ 768 kbps | 1 h 26 min | 7.65 GiB
Subtitles: English
Genre: Documentary, Family

Ailo’s Journey narrates the struggle of a little wild reindeer to survive its first migration. Throughout his journey, the frail and vulnerable wild reindeer will have to overcome the ordeals that mark the first year of his existence. His awakening to the wild world is a true Christmas tale in the heart of the stunning landscapes of Lapland.

9059d14c89994f448cd163a5beff2524.mkv (7.6 GB)



General
Unique ID : 215660501638056734945992176575113888915 (0xA23EB3A8AE8CFF8FA93AE94479048493)
Complete name : ./9059d14c89994f448cd163a5beff2524.mkv
Format : Matroska
Format version : Version 4 / Version 2
File size : 7.65 GiB
Duration : 1 h 26 min
Overall bit rate : 12.7 Mb/s
Writing application : mkvmerge v6.6.6 ('-=>FiCO<=- ') built on 7th Day of Doom… oom…
Writing library : libebml v1.3.0 + libmatroska v1.4.1

Video
ID : 1
Format : AVC
Format/Info : Advanced Video Codec
Format profile : High@L4.1
Format settings : CABAC / 5 Ref Frames
Format settings, CABAC : Yes
Format settings, RefFrames : 5 frames
Codec ID : V_MPEG4/ISO/AVC
Duration : 1 h 26 min
Bit rate : 11.9 Mb/s
Width : 1 920 pixels
Height : 808 pixels
Display aspect ratio : 2.40:1
Frame rate mode : Constant
Frame rate : 23.976 (24000/1001) FPS
Color space : YUV
Chroma subsampling : 4:2:0
Bit depth : 8 bits
Scan type : Progressive
Bits/(Pixel*Frame) : 0.321
Stream size : 7.03 GiB (92%)
Writing library : x264 core 157 r2969 d4099dd
Encoding settings : cabac=1 / ref=5 / deblock=1:0:0 / analyse=0x3:0x133 / me=umh / subme=9 / psy=1 / psy_rd=1.00:0.00 / mixed_ref=1 / me_range=16 / chroma_me=1 / trellis=2 / 8x8dct=1 / cqm=0 / deadzone=21,11 / fast_pskip=1 / chroma_qp_offset=-2 / threads=25 / lookahead_threads=2 / sliced_threads=0 / nr=0 / decimate=1 / interlaced=0 / bluray_compat=0 / constrained_intra=0 / bframes=3 / b_pyramid=2 / b_adapt=2 / b_bias=0 / direct=3 / weightb=1 / open_gop=0 / weightp=2 / keyint=250 / keyint_min=23 / scenecut=40 / intra_refresh=0 / rc_lookahead=60 / rc=2pass / mbtree=1 / bitrate=11927 / ratetol=1.0 / qcomp=0.60 / qpmin=0 / qpmax=69 / qpstep=4 / cplxblur=20.0 / qblur=0.5 / ip_ratio=1.40 / aq=1:1.00
Language : English
Default : Yes
Forced : No

Audio
ID : 2
Format : DTS
Format/Info : Digital Theater Systems
Mode : 16
Format settings, Endianness : Big
Codec ID : A_DTS
Duration : 1 h 26 min
Bit rate mode : Constant
Bit rate : 768 kb/s
Channel(s) : 6 channels
Channel positions : Front: L C R, Side: L R, LFE
Sampling rate : 48.0 kHz
Frame rate : 93.750 FPS (512 SPF)
Bit depth : 24 bits
Compression mode : Lossy
Stream size : 474 MiB (6%)
Language : Finnish
Default : Yes
Forced : No

Text
ID : 3
Format : UTF-8
Codec ID : S_TEXT/UTF8
Codec ID/Info : UTF-8 Plain Text
Language : English
Default : Yes
Forced : Yes





Ailo's Journey (2018)


Ailo's Journey (2018)


Ailo's Journey (2018)


Ailo's Journey (2018)


Ailo's Journey (2018)