All Things Must Pass: The Rise and Fall of Tower Records (2015)

Posted By: Tutorial
All Things Must Pass: The Rise and Fall of Tower Records (2015)

All Things Must Pass: The Rise and Fall of Tower Records (2015)
BDRip | 720 x 404 | .MP4/AVC @ 1209 Kbps | 1 h 36 min | 930 MB
Audio: English AAC 128 Kbps, 2 channels | Subs: None
Genre: Documentary, History, Music

'All Things Must Pass' is a documentary that explores the rise and fall of Tower Records, and its legacy forged by its rebellious founder, Russ Solomon.
Director: Colin Hanks
Writer: Steven Leckart
Stars: Russ Solomon, Chuck D., Chris Cornell

More info: IMDB

also You can look my other last: Music-posts

General
Complete name : All_Things_Must _Pass.mp4
Format : MPEG-4
Format profile : Base Media
Codec ID : isom (isom/iso2/avc1/mp41)
File size : 930 MiB
Duration : 1 h 36 min
Overall bit rate : 1 344 kb/s
Movie name : All_Things_Must_Pass
Writing application : Lavf54.6.100

Video
ID : 1
Format : AVC
Format/Info : Advanced Video Codec
Format profile : Baseline@L3
Format settings, CABAC : No
Format settings, ReFrames : 6 frames
Codec ID : avc1
Codec ID/Info : Advanced Video Coding
Duration : 1 h 36 min
Bit rate : 1 209 kb/s
Width : 720 pixels
Height : 404 pixels
Display aspect ratio : 16:9
Frame rate mode : Constant
Frame rate : 29.970 (30000/1001) FPS
Color space : YUV
Chroma subsampling : 4:2:0
Bit depth : 8 bits
Scan type : Progressive
Bits/(Pixel*Frame) : 0.139
Stream size : 836 MiB (90%)

Audio
ID : 2
Format : AAC
Format/Info : Advanced Audio Codec
Format profile : LC
Codec ID : 40
Duration : 1 h 36 min
Bit rate mode : Constant
Bit rate : 128 kb/s
Channel(s) : 2 channels
Channel positions : Front: L R
Sampling rate : 44.1 kHz
Frame rate : 43.066 FPS (1024 spf)
Compression mode : Lossy
Stream size : 88.6 MiB (10%)
Default : Yes
Alternate group : 1
Screenshots

All Things Must Pass: The Rise and Fall of Tower Records (2015)

All Things Must Pass: The Rise and Fall of Tower Records (2015)

All Things Must Pass: The Rise and Fall of Tower Records (2015)

All Things Must Pass: The Rise and Fall of Tower Records (2015)

Welcome to my blog - daily update!

All Things Must Pass: The Rise and Fall of Tower Records (2015)