All Things Must Pass: The Rise and Fall of Tower Records (2015)

Posted By: NaVi7
All Things Must Pass: The Rise and Fall of Tower Records (2015)

All Things Must Pass: The Rise and Fall of Tower Records (2015)
WEB-DL 720p | MP4 / AVC, 2047 Kbps | 1280x720 | 1h 36mn | 1.49 GiB
English: AAC, 160 Kbps (2 ch) | Subtitles: None
Genre: Documentary | History | Music

Established in 1960, Tower Records was once a retail powerhouse with two hundred stores, in thirty countries, on five continents. From humble beginnings in a small-town drugstore, Tower Records eventually became the heart and soul of the music world, and a powerful force in the music industry. In 1999, Tower Records made $1 billion. In 2006, the company filed for bankruptcy. What went wrong? Everyone thinks they know what killed Tower Records: The Internet. But that's not the story. "All Things Must Pass" is a feature documentary film examining this iconic company's explosive trajectory, tragic demise, and legacy forged by its rebellious founder Russ Solomon.

imdb

General
Complete name : All Things Must Pass.2015.WEB-DL.mp4
Format : MPEG-4
Format profile : Base Media / Version 2
Codec ID : mp42
File size : 1.49 GiB
Duration : 1h 36mn
Overall bit rate mode : Variable
Overall bit rate : 2 211 Kbps
Encoded date : UTC 2016-01-11 22:11:05
Tagged date : UTC 2016-01-11 22:11:05

Video
ID : 1
Format : AVC
Format/Info : Advanced Video Codec
Format profile : High@L3.1
Format settings, CABAC : Yes
Format settings, ReFrames : 5 frames
Codec ID : avc1
Codec ID/Info : Advanced Video Coding
Duration : 1h 36mn
Bit rate : 2 047 Kbps
Width : 1 280 pixels
Height : 720 pixels
Display aspect ratio : 16:9
Frame rate mode : Constant
Frame rate : 23.976 fps
Color space : YUV
Chroma subsampling : 4:2:0
Bit depth : 8 bits
Scan type : Progressive
Bits/(Pixel*Frame) : 0.093
Stream size : 1.38 GiB (93%)
Writing library : x264 core 148 r11 7599210
Encoding settings : cabac=1 / ref=5 / deblock=1:0:0 / analyse=0x3:0x113 / me=umh / subme=8 / psy=1 / psy_rd=1.00:0.00 / mixed_ref=1 / me_range=16 / chroma_me=1 / trellis=1 / 8x8dct=1 / cqm=0 / deadzone=21,11 / fast_pskip=1 / chroma_qp_offset=-2 / threads=22 / lookahead_threads=3 / sliced_threads=0 / nr=0 / decimate=1 / interlaced=0 / bluray_compat=0 / stitchable=1 / constrained_intra=0 / bframes=3 / b_pyramid=2 / b_adapt=2 / b_bias=0 / direct=3 / weightb=1 / open_gop=0 / weightp=2 / keyint=infinite / keyint_min=23 / scenecut=40 / intra_refresh=0 / rc_lookahead=50 / rc=crf / mbtree=1 / crf=20.0 / qcomp=0.60 / qpmin=5 / qpmax=69 / qpstep=4 / vbv_maxrate=2750 / vbv_bufsize=7500 / crf_max=0.0 / nal_hrd=none / filler=0 / ip_ratio=1.40 / aq=1:1.00
Encoded date : UTC 2016-01-11 22:11:05
Tagged date : UTC 2016-01-11 22:11:05
Color range : Limited
Color primaries : BT.709
Transfer characteristics : BT.709
Matrix coefficients : BT.709

Audio
ID : 2
Format : AAC
Format/Info : Advanced Audio Codec
Format profile : LC
Codec ID : 40
Duration : 1h 36mn
Bit rate mode : Variable
Bit rate : 160 Kbps
Channel(s) : 2 channels
Channel positions : Front: L R
Sampling rate : 48.0 KHz
Compression mode : Lossy
Stream size : 111 MiB (7%)
Encoded date : UTC 2016-01-11 22:11:05
Tagged date : UTC 2016-01-11 22:11:05


screenshots:

All Things Must Pass: The Rise and Fall of Tower Records (2015)

All Things Must Pass: The Rise and Fall of Tower Records (2015)

All Things Must Pass: The Rise and Fall of Tower Records (2015)