All Things Must Pass: The Rise and Fall of Tower Records (2015)

Posted By: Without
All Things Must Pass: The Rise and Fall of Tower Records (2015)

All Things Must Pass: The Rise and Fall of Tower Records (2015)
BDRip | MKV | 720x404 | AVC@1142 Kbps | English AAC@118 Kbps | 2 channels | 1h 36mn | 873 MB
BRRip | AVI | 720x400 | XviD@1597 Kbps | English AC3@448 Kbps | 6 channels | 1h 36mn | 1.38 GB
BDRip 720p | MKV | 1280x720 | AVC@4386 Kbps | English AC3@448 Kbps | 6 channels | 1h 36mn | 3.26 GB
Genre: Documentary, History, Music

'All Things Must Pass' is a documentary that explores the rise and fall of Tower Records, and its legacy forged by its rebellious founder, Russ Solomon.



General
Unique ID : 232104093458940026588684656327237706474 (0xAE9D9F54582731F88A0D2435EC2A22EA)
Complete name : All.Things.Must.Pass.The.Rise.and.Fall.of.Tower.Records.2015.BDRip.x264-VoMiT[rarbg]\All.Things.Must.Pass.The.Rise.and.Fall.of.Tower.Records.2015.BDRip.x264-VoMiT.mkv
Format : Matroska
Format version : Version 4 / Version 2
File size : 874 MiB
Duration : 1h 36mn
Overall bit rate : 1 262 Kbps
Encoded date : UTC 2016-04-10 20:07:19
Writing application : mkvmerge v9.0.1 ('Obstacles') 64bit
Writing library : libebml v1.3.3 + libmatroska v1.4.4

Video
ID : 1
Format : AVC
Format/Info : Advanced Video Codec
Format profile : High@L3.1
Format settings, CABAC : Yes
Format settings, ReFrames : 5 frames
Codec ID : V_MPEG4/ISO/AVC
Duration : 1h 36mn
Bit rate : 1 142 Kbps
Width : 720 pixels
Height : 404 pixels
Display aspect ratio : 16:9
Frame rate mode : Constant
Frame rate : 23.976 (24000/1001) fps
Color space : YUV
Chroma subsampling : 4:2:0
Bit depth : 8 bits
Scan type : Progressive
Bits/(Pixel*Frame) : 0.164
Stream size : 791 MiB (90%)
Writing library : x264 core 148 r2665 a01e339
Encoding settings : cabac=1 / ref=5 / deblock=1:-3:-3 / analyse=0x3:0x113 / me=umh / subme=8 / psy=1 / psy_rd=1.00:0.25 / mixed_ref=1 / me_range=24 / chroma_me=1 / trellis=1 / 8x8dct=1 / cqm=0 / deadzone=21,11 / fast_pskip=1 / chroma_qp_offset=-4 / threads=12 / lookahead_threads=2 / sliced_threads=0 / nr=0 / decimate=1 / interlaced=0 / bluray_compat=0 / constrained_intra=0 / bframes=3 / b_pyramid=2 / b_adapt=2 / b_bias=0 / direct=3 / weightb=1 / open_gop=0 / weightp=2 / keyint=240 / keyint_min=24 / scenecut=40 / intra_refresh=0 / rc_lookahead=50 / rc=crf / mbtree=1 / crf=19.0 / qcomp=0.60 / qpmin=0 / qpmax=69 / qpstep=4 / vbv_maxrate=17500 / vbv_bufsize=17500 / crf_max=0.0 / nal_hrd=none / filler=0 / ip_ratio=1.40 / aq=1:0.50
Default : Yes
Forced : No
Color range : Limited
Matrix coefficients : BT.709

Audio
ID : 2
Format : AAC
Format/Info : Advanced Audio Codec
Format profile : LC
Codec ID : A_AAC
Duration : 1h 36mn
Bit rate : 118 Kbps
Channel(s) : 2 channels
Channel positions : Front: L R
Sampling rate : 48.0 KHz
Frame rate : 46.875 fps (1024 spf)
Compression mode : Lossy
Delay relative to video : 9ms
Stream size : 81.8 MiB (9%)
Language : English
Default : Yes
Forced : No

Menu
00:00:00.000 : en:00:00:00.000
00:10:42.058 : en:00:10:42.058
00:19:20.743 : en:00:19:20.743
00:28:33.795 : en:00:28:33.795
00:38:36.397 : en:00:38:36.397
00:47:16.417 : en:00:47:16.417
00:57:27.778 : en:00:57:27.778
01:07:48.648 : en:01:07:48.648
01:15:52.965 : en:01:15:52.965
01:25:46.850 : en:01:25:46.850

General
Complete name : All.Things.Must.Pass.The.Rise.and.Fall.of.Tower.Records.2015.BRRip.XviD.AC3-RARBG\All.Things.Must.Pass.The.Rise.and.Fall.of.Tower.Records.2015.BRRip.XviD.AC3-RARBG.avi
Format : AVI
Format/Info : Audio Video Interleave
File size : 1.39 GiB
Duration : 1h 36mn
Overall bit rate : 2 055 Kbps
Writing application : Lavf56.40.101
Writing library : VirtualDub build 35491/release

Video
ID : 0
Format : MPEG-4 Visual
Format profile : Simple@L5
Format settings, BVOP : No
Format settings, QPel : No
Format settings, GMC : No warppoints
Format settings, Matrix : Default (H.263)
Codec ID : XVID
Codec ID/Hint : XviD
Duration : 1h 36mn
Bit rate : 1 597 Kbps
Width : 720 pixels
Height : 400 pixels
Display aspect ratio : 16:9
Frame rate : 23.976 fps
Color space : YUV
Chroma subsampling : 4:2:0
Bit depth : 8 bits
Scan type : Progressive
Compression mode : Lossy
Bits/(Pixel*Frame) : 0.231
Stream size : 1.08 GiB (78%)
Writing library : Lavc56.60.100

Audio
ID : 1
Format : AC-3
Format/Info : Audio Coding 3
Mode extension : CM (complete main)
Format settings, Endianness : Big
Codec ID : 2000
Duration : 1h 36mn
Bit rate mode : Constant
Bit rate : 448 Kbps
Channel(s) : 6 channels
Channel positions : Front: L C R, Side: L R, LFE
Sampling rate : 48.0 KHz
Frame rate : 31.250 fps (1536 spf)
Compression mode : Lossy
Stream size : 310 MiB (22%)
Alignment : Aligned on interleaves
Interleave, duration : 42 ms (1.00 video frame)
Interleave, preload duration : 512 ms

General
Unique ID : 179685515814712872257751359941422479943 (0x872E2BEA9238EF6FA899D8FE5B55FA47)
Complete name : All.Things.Must.Pass.The.Rise.and.Fall.of.Tower.Records.2015.720p.BluRay.x264-SADPANDA[rarbg]\All.Things.Must.Pass.The.Rise.and.Fall.of.Tower.Records.2015.720p.BluRay.x264-SADPANDA.mkv
Format : Matroska
Format version : Version 4 / Version 2
File size : 3.27 GiB
Duration : 1h 36mn
Overall bit rate : 4 836 Kbps
Encoded date : UTC 2016-04-10 20:06:30
Writing application : mkvmerge v9.0.1 ('Obstacles') 64bit
Writing library : libebml v1.3.3 + libmatroska v1.4.4

Video
ID : 1
Format : AVC
Format/Info : Advanced Video Codec
Format profile : High@L4.1
Format settings, CABAC : Yes
Format settings, ReFrames : 5 frames
Codec ID : V_MPEG4/ISO/AVC
Duration : 1h 36mn
Bit rate : 4 386 Kbps
Width : 1 280 pixels
Height : 720 pixels
Display aspect ratio : 16:9
Frame rate mode : Constant
Frame rate : 23.976 (24000/1001) fps
Color space : YUV
Chroma subsampling : 4:2:0
Bit depth : 8 bits
Scan type : Progressive
Bits/(Pixel*Frame) : 0.198
Stream size : 2.97 GiB (91%)
Writing library : x264 core 148 r2665 a01e339
Encoding settings : cabac=1 / ref=5 / deblock=1:-3:-3 / analyse=0x3:0x113 / me=umh / subme=8 / psy=1 / psy_rd=1.00:0.25 / mixed_ref=1 / me_range=24 / chroma_me=1 / trellis=1 / 8x8dct=1 / cqm=0 / deadzone=21,11 / fast_pskip=1 / chroma_qp_offset=-4 / threads=12 / lookahead_threads=2 / sliced_threads=0 / nr=0 / decimate=1 / interlaced=0 / bluray_compat=0 / constrained_intra=0 / bframes=3 / b_pyramid=2 / b_adapt=2 / b_bias=0 / direct=3 / weightb=1 / open_gop=0 / weightp=2 / keyint=240 / keyint_min=24 / scenecut=40 / intra_refresh=0 / rc_lookahead=50 / rc=2pass / mbtree=1 / bitrate=4386 / ratetol=1.0 / qcomp=0.60 / qpmin=0 / qpmax=69 / qpstep=4 / cplxblur=20.0 / qblur=0.5 / vbv_maxrate=62500 / vbv_bufsize=78125 / nal_hrd=none / filler=0 / ip_ratio=1.40 / aq=1:0.50
Default : Yes
Forced : No

Audio
ID : 2
Format : AC-3
Format/Info : Audio Coding 3
Mode extension : CM (complete main)
Format settings, Endianness : Big
Codec ID : A_AC3
Duration : 1h 36mn
Bit rate mode : Constant
Bit rate : 448 Kbps
Channel(s) : 6 channels
Channel positions : Front: L C R, Side: L R, LFE
Sampling rate : 48.0 KHz
Frame rate : 31.250 fps (1536 spf)
Compression mode : Lossy
Stream size : 310 MiB (9%)
Language : English
Default : Yes
Forced : No

Menu
00:00:00.000 : en:00:00:00.000
00:10:42.058 : en:00:10:42.058
00:19:20.743 : en:00:19:20.743
00:28:33.795 : en:00:28:33.795
00:38:36.397 : en:00:38:36.397
00:47:16.417 : en:00:47:16.417
00:57:27.778 : en:00:57:27.778
01:07:48.648 : en:01:07:48.648
01:15:52.965 : en:01:15:52.965
01:25:46.850 : en:01:25:46.850


BDRip Screenshots

All Things Must Pass: The Rise and Fall of Tower Records (2015)

All Things Must Pass: The Rise and Fall of Tower Records (2015)

All Things Must Pass: The Rise and Fall of Tower Records (2015)


BRRip Screenshots

All Things Must Pass: The Rise and Fall of Tower Records (2015)

All Things Must Pass: The Rise and Fall of Tower Records (2015)

All Things Must Pass: The Rise and Fall of Tower Records (2015)


BDRip 720p Screenshots

All Things Must Pass: The Rise and Fall of Tower Records (2015)

All Things Must Pass: The Rise and Fall of Tower Records (2015)

All Things Must Pass: The Rise and Fall of Tower Records (2015)


Come Visit My Blog (•‿•)