American Crime Story S01E03 (2016)

Posted By: JohnSmith
American Crime Story S01E03 (2016)

American Crime Story S01E03 (2016)
HDTV 720p | MKV / AVC@3622 kb/s | 1280x720 | 42mn | 1.21 GB | English: AC3, 384 kb/s (6 ch) | Subtiltes: English
Genre: Biography | Crime | Drama

There are few truly unifying events in American life. When something happens that makes the entire country stop and take notice, we remember it forever. Everybody remembers where they were when O.J. Simpson, riding in a white Bronco, led the police on a low-speed chase all over Los Angeles. This marked the emergence of the 24-hour news cycle and the birth of reality television.

IMDB - 1 win.



General
Complete name : D:\Downloads\American.Crime.Story.S01E03.720p.HDTV.x264-FLEET[rarbg]\American.Crime.Story.S01E03.720p.HDTV.x264-FLEET.mkv
Format : Matroska
Format version : Version 2
File size : 1.21 GiB
Duration : 42mn 16s
Overall bit rate : 4 088 Kbps
Writing application : libebml v1.3.0 + libmatroska v1.4.0
Writing library : mkvmerge v6.1.0 ('Old Devil') built on Mar 2 2013 14:32:37

Video
ID : 1
Format : AVC
Format/Info : Advanced Video Codec
Format profile : High@L4.1
Format settings, CABAC : Yes
Format settings, ReFrames : 5 frames
Codec ID : V_MPEG4/ISO/AVC
Duration : 42mn 16s
Bit rate : 3 622 Kbps
Width : 1 280 pixels
Height : 720 pixels
Display aspect ratio : 16:9
Frame rate mode : Constant
Frame rate : 23.976 fps
Color space : YUV
Chroma subsampling : 4:2:0
Bit depth : 8 bits
Scan type : Progressive
Bits/(Pixel*Frame) : 0.164
Stream size : 1.07 GiB (89%)
Writing library : x264 core 148 r2665 a01e339
Encoding settings : cabac=1 / ref=5 / deblock=1:-3:-3 / analyse=0x3:0x113 / me=umh / subme=8 / psy=1 / psy_rd=1.05:0.00 / mixed_ref=1 / me_range=16 / chroma_me=1 / trellis=1 / 8x8dct=1 / cqm=0 / deadzone=21,11 / fast_pskip=1 / chroma_qp_offset=-2 / threads=18 / lookahead_threads=3 / sliced_threads=0 / nr=0 / decimate=1 / interlaced=0 / bluray_compat=0 / constrained_intra=0 / bframes=3 / b_pyramid=2 / b_adapt=2 / b_bias=0 / direct=3 / weightb=1 / open_gop=0 / weightp=2 / keyint=250 / keyint_min=23 / scenecut=40 / intra_refresh=0 / rc_lookahead=50 / rc=crf / mbtree=1 / crf=18.0 / qcomp=0.60 / qpmin=0 / qpmax=69 / qpstep=4 / ip_ratio=1.40 / aq=3:0.80
Language : English
Default : Yes
Forced : No

Audio
ID : 2
Format : AC-3
Format/Info : Audio Coding 3
Mode extension : CM (complete main)
Format settings, Endianness : Big
Codec ID : A_AC3
Duration : 42mn 16s
Bit rate mode : Constant
Bit rate : 384 Kbps
Channel(s) : 6 channels
Channel positions : Front: L C R, Side: L R, LFE
Sampling rate : 48.0 KHz
Compression mode : Lossy
Stream size : 116 MiB (9%)
Language : English
Default : Yes
Forced : No

Text
ID : 3
Format : UTF-8
Codec ID : S_TEXT/UTF8
Codec ID/Info : UTF-8 Plain Text
Title : English
Language : English
Default : Yes
Forced : No


Screenshots

American Crime Story S01E03 (2016)

American Crime Story S01E03 (2016)

American Crime Story S01E03 (2016)