PBS American Masters - Pedro E. Guerrero: A Photographer's Journey (2015)

Posted By: notbanned
1080p (FullHD) / WEB-DL IMDb
PBS American Masters - Pedro E. Guerrero: A Photographer's Journey (2015)

PBS American Masters - Pedro E. Guerrero: A Photographer's Journey (2015)
WEB-DL | 1920x1080 | .MKV/AVC @ 6398 Kbps | 53 min 10 s | 2.44 GiB
Audio: English AAC 160 kbps, 2 channels | Subs: English
Genre: Documentary | Biography

Discover the remarkable life and work of Pedro E. Guerrero, a Mexican American, born and raised in segregated Mesa, Arizona. Explore his collaborations with three of the most iconic American artists of the 20th century: architect Frank Lloyd Wright and sculptors Alexander Calder and Louise Nevelson. Guerrero became one of the most sought-after photographers of the "Mad Men" era, yet his poignant story is largely unknown.

General
Unique ID : 6811910464788935547021577337222826449 (0x51FED1DB0487DBCD17ACB9DA96989D1)
Complete name : American.Masters.S29E07.Pedro.E.Guerrero.1080p.mkv
Format : Matroska
Format version : Version 4 / Version 2
File size : 2.44 GiB
Duration : 53 min 10 s
Overall bit rate : 6 561 kb/s

Video
ID : 1
Format : AVC
Format/Info : Advanced Video Codec
Format profile : High@L5
Format settings, CABAC : Yes
Format settings, ReFrames : 5 frames
Codec ID : V_MPEG4/ISO/AVC
Duration : 53 min 10 s
Bit rate : 6 398 kb/s
Width : 1 920 pixels
Height : 1 080 pixels
Display aspect ratio : 16:9
Frame rate mode : Constant
Frame rate : 29.970 (30000/1001) FPS
Color space : YUV
Chroma subsampling : 4:2:0
Bit depth : 8 bits
Scan type : Progressive
Bits/(Pixel*Frame) : 0.103
Stream size : 2.38 GiB (98%)
Writing library : Zencoder Video Encoding System
Default : Yes
Forced : No

Audio
ID : 2
Format : AAC
Format/Info : Advanced Audio Codec
Format profile : LC
Codec ID : A_AAC
Duration : 53 min 10 s
Bit rate : 160 kb/s
Channel(s) : 2 channels
Channel positions : Front: L R
Sampling rate : 48.0 kHz
Frame rate : 46.875 FPS (1024 spf)
Compression mode : Lossy
Stream size : 60.8 MiB (2%)
Language : English
Default : Yes
Forced : No

Text
ID : 3
Format : UTF-8
Codec ID : S_TEXT/UTF8
Codec ID/Info : UTF-8 Plain Text
Duration : 52 min 55 s
Bit rate : 80 b/s
Count of elements : 1439
Stream size : 31.4 KiB (0%)
Language : English
Default : Yes
Forced : No


Screenshots:

PBS American Masters - Pedro E. Guerrero: A Photographer's Journey (2015)

PBS American Masters - Pedro E. Guerrero: A Photographer's Journey (2015)

PBS American Masters - Pedro E. Guerrero: A Photographer's Journey (2015)

PBS American Masters - Pedro E. Guerrero: A Photographer's Journey (2015)