PBS American Experience - Clinton (2012)

Posted By: vivid23
PBS American Experience - Clinton (2012)

PBS American Experience - Clinton (2012)
PDTV | 848x480 | MP4/x264 @ 1160 Kbps | 4x60mn | Audio: English AAC 128 kbps, 2 channels | Subs: None | 4x557 MB
Genre: Documentary

The biography of a president who rose from a broken childhood in Arkansas to become one of the most successful politicians in modern American history, and one of the most complex and conflicted characters to ever stride across the public stage. From draft dodging to the Dayton Accords, from Monica Lewinsky to a balanced budget, the presidency of William Jefferson Clinton veered between sordid scandal and grand achievement. Clinton had a career full of accomplishment and rife with scandal, a marriage that would make history and create controversy, and a presidency that would define the crucial and transformative period between the fall of the Berlin Wall and 9-11.

The latest installment in the critically acclaimed and successful series of presidential biographies, Clinton follows the president across his two terms as he confronted some of the key forces that would shape the future, including partisan political warfare and domestic and international terrorism, and as he struggled with uneven success to define the role of American power in a post-Cold War world. Most memorably, it explores how Clinton’s conflicted character made history, even as it enraged his enemies and confounded his friends.

More info

Video
ID : 1
Format : AVC
Format/Info : Advanced Video Codec
Format profile : High@L3.1
Format settings, CABAC : Yes
Format settings, ReFrames : 5 frames
Codec ID : avc1
Codec ID/Info : Advanced Video Coding
Duration : 1h 0mn
Bit rate mode : Variable
Bit rate : 1 160 Kbps
Maximum bit rate : 9 472 Kbps
Width : 848 pixels
Height : 480 pixels
Display aspect ratio : 16:9
Frame rate mode : Constant
Frame rate : 29.970 fps
Color space : YUV
Chroma subsampling : 4:2:0
Bit depth : 8 bits
Scan type : Progressive
Bits/(Pixel*Frame) : 0.095
Stream size : 500 MiB (90%)
Writing library : x264 core 120
Encoding settings : cabac=1 / ref=5 / deblock=1:0:0 / analyse=0x3:0x113 / me=umh / subme=9 / psy=1 / psy_rd=2.00:1.00 / mixed_ref=1 / me_range=16 / chroma_me=1 / trellis=2 / 8x8dct=1 / cqm=0 / deadzone=21,11 / fast_pskip=1 / chroma_qp_offset=-4 / threads=3 / sliced_threads=0 / nr=0 / decimate=1 / interlaced=0 / bluray_compat=0 / constrained_intra=0 / bframes=16 / b_pyramid=2 / b_adapt=2 / b_bias=0 / direct=1 / weightb=1 / open_gop=0 / weightp=2 / keyint=300 / keyint_min=30 / scenecut=40 / intra_refresh=0 / rc_lookahead=50 / rc=crf / mbtree=1 / crf=23.0 / qcomp=0.60 / qpmin=3 / qpmax=69 / qpstep=4 / ip_ratio=1.40 / aq=1:0.80
Tagged date : UTC 2012-05-28 11:22:54
Color primaries : BT.709-5, BT.1361, IEC 61966-2-4, SMPTE RP177
Transfer characteristics : BT.709-5, BT.1361
Matrix coefficients : BT.709-5, BT.1361, IEC 61966-2-4 709, SMPTE RP177

Audio
ID : 2
Format : AAC
Format/Info : Advanced Audio Codec
Format version : Version 4
Format profile : LC
Format settings, SBR : No
Codec ID : 40
Duration : 1h 0mn
Bit rate mode : Variable
Bit rate : 127 Kbps
Maximum bit rate : 203 Kbps
Channel(s) : 2 channels
Channel positions : Front: L R
Sampling rate : 48.0 KHz
Compression mode : Lossy
Stream size : 54.7 MiB (10%)
Encoded date : UTC 2012-05-28 11:22:50
Tagged date : UTC 2012-05-28 11:22:54

Text
ID : 3
Format : Timed text
Codec ID : tx3g
Duration : 1h 0mn
Bit rate mode : Variable
Bit rate : 114 bps
Stream size : 50.1 KiB (0%)
Title : Imported with GPAC 0.4.6-DEV (internal rev. 5)
Encoded date : UTC 2012-05-28 11:22:54
Tagged date : UTC 2012-05-28 11:22:54


PBS American Experience - Clinton (2012)

PBS American Experience - Clinton (2012)


Feel free to contact me when links are dead