American Horror Story S06E04 (2016)

Posted By: Without
American Horror Story S06E04 (2016)

American Horror Story S06E04 (2016)
HDTV 720p | MKV | 1280x720 | AVC@3300 Kbps | English AC3@384 Kbps
6 channels | 37mn 45s | 0.99 GB
Genre: Drama, Horror, Thriller

An anthology series that centers on different characters and locations, including a house with a murderous past, an insane asylum, a witch coven, a freak show, an enigmatic hotel and a sinister farmhouse in Roanoke, North Carolina.

IMDB - Won 2 Golden Globes. Another 92 wins & 255 nominations


General
Unique ID : 212518814854970012464961599750969075318 (0x9FE1A28A9B99927B92E24AAC435DA676)
Complete name : J:\American.Horror.Story.S06E04.720p.HDTV.x264-AVS.mkv
Format : Matroska
Format version : Version 4 / Version 2
File size : 1 015 MiB
Duration : 37mn 45s
Overall bit rate : 3 759 Kbps
Encoded date : UTC 2016-10-06 02:08:16
Writing application : FastLE v2.5.0 - AVS
Writing library : libx264 + libebml + libmatroska + libfastrar

Video
ID : 1
Format : AVC
Format/Info : Advanced Video Codec
Format profile : High@L4.1
Format settings, CABAC : Yes
Format settings, ReFrames : 5 frames
Codec ID : V_MPEG4/ISO/AVC
Duration : 37mn 45s
Bit rate : 3 300 Kbps
Width : 1 280 pixels
Height : 720 pixels
Display aspect ratio : 16:9
Frame rate mode : Constant
Frame rate : 23.976 (24000/1001) fps
Color space : YUV
Chroma subsampling : 4:2:0
Bit depth : 8 bits
Scan type : Progressive
Bits/(Pixel*Frame) : 0.149
Stream size : 891 MiB (88%)
Writing library : x264 core 148 r2705 3f5ed56
Encoding settings : cabac=1 / ref=5 / deblock=1:0:0 / analyse=0x3:0x113 / me=umh / subme=8 / psy=1 / psy_rd=1.00:0.00 / mixed_ref=1 / me_range=16 / chroma_me=1 / trellis=1 / 8x8dct=1 / cqm=0 / deadzone=21,11 / fast_pskip=1 / chroma_qp_offset=-2 / threads=22 / lookahead_threads=3 / sliced_threads=0 / nr=0 / decimate=1 / interlaced=0 / bluray_compat=0 / constrained_intra=0 / bframes=3 / b_pyramid=2 / b_adapt=2 / b_bias=0 / direct=3 / weightb=1 / open_gop=0 / weightp=2 / keyint=250 / keyint_min=23 / scenecut=40 / intra_refresh=0 / rc_lookahead=50 / rc=crf / mbtree=1 / crf=18.0 / qcomp=0.60 / qpmin=0 / qpmax=69 / qpstep=4 / ip_ratio=1.40 / aq=1:1.00
Default : Yes
Forced : No
Color range : Limited
Matrix coefficients : BT.709

Audio
ID : 2
Format : AC-3
Format/Info : Audio Coding 3
Mode extension : CM (complete main)
Format settings, Endianness : Big
Codec ID : A_AC3
Duration : 37mn 45s
Bit rate mode : Constant
Bit rate : 384 Kbps
Channel(s) : 6 channels
Channel positions : Front: L C R, Side: L R, LFE
Sampling rate : 48.0 KHz
Frame rate : 31.250 fps (1536 spf)
Compression mode : Lossy
Stream size : 104 MiB (10%)
Default : Yes
Forced : No


HDTV 720p Screenshots

American Horror Story S06E04 (2016)

American Horror Story S06E04 (2016)

American Horror Story S06E04 (2016)


Come Visit My Blog (•‿•)