National Geographic - Ancient Megastructures Collection (2009)

Posted By: Tutorial
National Geographic - Ancient Megastructures Collection (2009)

National Geographic - Ancient Megastructures Collection (2009)
PDTV | 720 x 416 | .AVI/XviD @ 1929 Kbps | 8x~47mn | English MP3 128 Kbps, 2 channels | 5.47 GB
Genre: Documentary, History

Discover the secrets of revolutionary structures in Ancient Megastructures. Certain landmarks have captured the imagination and awe of modern-day architects and engineers around the world as they work to solve the mystery of how their ancient forebears were able to construct such beautiful, timeless and revolutionary structures with none of the machines and materials available to modern engineers. From the dreams that inspired them, to the blood and sweat that built them, discover the full story behind eight magnificent structures that forever changed the landscape of architecture: Petra, Alhambra, St.Paul’s Cathedral, Hagia Sophia, Machu Picchu, The Colosseum, Angkor Wat and The Great Pyramid
Part 1: Petra
- a precious stone, lost in the Arabian desert, one of the most mysterious of ancient cities. At the entrance to the city rises a masterpiece of architecture El Hazne. Perpetuated in Hollywood films, this structure cut into the rock for almost 20 centuries ago, but today researchers are still stunning architectural monuments behind El Hazne and traces of the people of the desert, created the city. The search is not over yet. How they managed to build this magnificent building? Who were these great masters? And the most important question - what was the building intended for?

Part 2: St Pauls Cathedral
In 1666, in London, thousands of people fleeing the fire, devouring the great cathedral. Fire destroys this monumental architecture. But the new miracle of architecture rises from the ashes and will rise above one of the richest cities in the world. As the first and largest Protestant church, it will be unchanged part of the London landscape. Erection of a huge dome will become a matter for the architect of all life. Each time the church will be on the verge of destruction, he will look for engineering solutions. It is a risk, putting into practice the revolutionary ideas, to realize its tremendous dream.

Part 3: Hagia Sophia
Discover how the church of Hagia Sophia in Istanbul, rebuilt by the Roman Emperor Justinian, has survived 1,500 years of turbulent history.

Part 4: Machu Picchu
On the distant mountain range, located high in the Peruvian Andes, are the ruins of the ancient city. 600 years they stood under the onslaught of torrential rains and mudslides. The city consists of thousands of stones, weighing up to 20 tons, fitted tightly to each other. Each stone has been processed and installed using only human hands and primitive tools. Built by the will of the ambitious emperor, this city is a wonderful legacy of the empire of the Americas. This is Machu Picchu, a city born of war and victory.

Part 5: Angkor Wat
Situated deep in the Cambodian jungle, the majestic temple of Angkor Wat – designed to honour the Hindu god Vishnu – took over 30 years to build.

Part 6: Alhambra
In the Andalusian mountains of southern Spain, rises the majestic fort, which became a legend, Alhambra. This ancient citadel overlooks Granada. On the construction of its 37 towers and walls of the powerful took more than 150 years, but the Alhambra - it's not only an impregnable fortress, this magnificent palace, with elegant courtyards and unfolded the bloody scene where the intrigue and the most famous of the surviving monuments of Muslim architecture in the western world.

Part 7: The Colosseum
- Arena sand and blood, are the great gladiators fought to the death in its greatest effect. Greatest amphitheater of the ancient world embodies the genius of Roman engineering, but is much more - a powerful tool of control over the population and a reason for the proclamation of the Roman greatness in the world. The idea of the emperor, an upstart, a history of the Coliseum is as brutal and bloody, as the events that took place in it.

Part 8: The Great Pyramid
Once upon a time in ancient times there were seven wonders of the world, seven monuments of human ingenuity, but one after another, these civilizations have collapsed and miracles turned to dust, lost in the sands of time. Great Pyramid of Giza, the age of which 4.5 thousand years - is the only surviving ancient wonder of the world and the oldest of them. Around the pyramids rise to many myths, but its real story is the story of triumph despite insurmountable obstacles, an outstanding human skills and an unquenchable thirst for one man to live forever.

General
Complete name : National.Geographic.Ancient.Megastructures.Collection.1of8.Petra.avi
Format : AVI
Format/Info : Audio Video Interleave
File size : 700 MiB
Duration : 47mn 24s
Overall bit rate : 2 064 Kbps
Writing application : VirtualDubMod 1.5.4.1 (build 2178/release)
Writing library : VirtualDubMod build 2178/release

Video
ID : 0
Format : MPEG-4 Visual
Format profile : Advanced Simple@L5
Format settings, BVOP : No
Format settings, QPel : No
Format settings, GMC : No warppoints
Format settings, Matrix : Custom
Codec ID : XVID
Codec ID/Hint : XviD
Duration : 47mn 24s
Bit rate : 1 929 Kbps
Width : 720 pixels
Height : 416 pixels
Display aspect ratio : 16:9
Frame rate : 25.000 fps
Color space : YUV
Chroma subsampling : 4:2:0
Bit depth : 8 bits
Scan type : Progressive
Compression mode : Lossy
Bits/(Pixel*Frame) : 0.258
Stream size : 654 MiB (93%)
Writing library : XviD 1.2.1 (UTC 2008-12-04)

Audio
ID : 1
Format : MPEG Audio
Format version : Version 1
Format profile : Layer 3
Mode : Joint stereo
Mode extension : MS Stereo
Codec ID : 55
Codec ID/Hint : MP3
Duration : 47mn 24s
Bit rate mode : Constant
Bit rate : 128 Kbps
Channel(s) : 2 channels
Sampling rate : 48.0 KHz
Compression mode : Lossy
Stream size : 43.4 MiB (6%)
Alignment : Aligned on interleaves
Interleave, duration : 80 ms (2.00 video frames)
Interleave, preload duration : 504 ms
Writing library : LAME3.98r
Encoding settings : -m j -V 4 -q 2 -lowpass 17 -b 128
Screenshots

National Geographic - Ancient Megastructures Collection (2009)

National Geographic - Ancient Megastructures Collection (2009)

National Geographic - Ancient Megastructures Collection (2009)

National Geographic - Ancient Megastructures Collection (2009)

National Geographic - Ancient Megastructures Collection (2009)

National Geographic - Ancient Megastructures Collection (2009)

National Geographic - Ancient Megastructures Collection (2009)

National Geographic - Ancient Megastructures Collection (2009)

Welcome to my blog - daily update!

National Geographic - Ancient Megastructures Collection (2009)