History Channel - Ancient Aliens: The Wisdom Keepers (2016)

Posted By: notbanned
History Channel - Ancient Aliens: The Wisdom Keepers (2016)

History Channel - Ancient Aliens: The Wisdom Keepers (2016)
HDTV | 1280x720 | .MKV/AVC @ 3659 Kbps | 41mn 59s | 1.21 GiB
Audio: English AC3 384 kbps, 6 channels | Subs: English
Genre: Documentary | History

The Aborigines of Australia are the oldest, continuously surviving society on Earth. The stories preserved in their oral tradition are said to date back over 60,000 years, to an era they call the "Dreamtime" and contain fascinating descriptions about how life began and our planet was seeded by extraterrestrials. Linguistic experts have just discovered that many of these indigenous legends can be scientifically verified by examining the geological record. Ancient Astronaut theorists propose that if the Aboriginal's oral traditions are indeed this accurate, then perhaps the tales they tell about sky gods visiting Earth in large, fire-spewing crafts are true as well. Could the ultimate evidence about our extraterrestrial past be found within the sacred stories, sites, and rituals of Australia's Wisdom Keepers?


General
Unique ID : 176426227852253532929601068550430095648 (0x84BA749CEE9F1C09B8A4AFB58D6F7920)
Complete name : Ancient.Aliens.S11E07.The.Wisdom.Keepers.mkv
Format : Matroska
Format version : Version 4 / Version 2
File size : 1.21 GiB
Duration : 41mn 59s
Overall bit rate : 4 125 Kbps

Video
ID : 1
Format : AVC
Format/Info : Advanced Video Codec
Format profile : High@L4.1
Format settings, CABAC : Yes
Format settings, ReFrames : 5 frames
Codec ID : V_MPEG4/ISO/AVC
Duration : 41mn 59s
Bit rate : 3 659 Kbps
Width : 1 280 pixels
Height : 720 pixels
Display aspect ratio : 16:9
Frame rate mode : Constant
Frame rate : 23.976 fps
Color space : YUV
Chroma subsampling : 4:2:0
Bit depth : 8 bits
Scan type : Progressive
Bits/(Pixel*Frame) : 0.166
Stream size : 1.07 GiB (89%)
Writing library : x264 core 148 r2694 3b70645
Encoding settings : cabac=1 / ref=5 / deblock=1:0:0 / analyse=0x3:0x113 / me=umh / subme=8 / psy=1 / psy_rd=1.00:0.00 / mixed_ref=1 / me_range=16 / chroma_me=1 / trellis=1 / 8x8dct=1 / cqm=0 / deadzone=21,11 / fast_pskip=1 / chroma_qp_offset=-2 / threads=12 / lookahead_threads=2 / sliced_threads=0 / nr=0 / decimate=1 / interlaced=0 / bluray_compat=0 / constrained_intra=0 / bframes=3 / b_pyramid=2 / b_adapt=2 / b_bias=0 / direct=3 / weightb=1 / open_gop=0 / weightp=2 / keyint=250 / keyint_min=23 / scenecut=40 / intra_refresh=0 / rc_lookahead=50 / rc=crf / mbtree=1 / crf=20.0 / qcomp=0.60 / qpmin=0 / qpmax=69 / qpstep=4 / ip_ratio=1.40 / aq=1:1.00
Default : Yes
Forced : No
Color range : Limited
Matrix coefficients : BT.709

Audio
ID : 2
Format : AC-3
Format/Info : Audio Coding 3
Mode extension : CM (complete main)
Format settings, Endianness : Big
Codec ID : A_AC3
Duration : 41mn 59s
Bit rate mode : Constant
Bit rate : 384 Kbps
Channel(s) : 6 channels
Channel positions : Front: L C R, Side: L R, LFE
Sampling rate : 48.0 KHz
Compression mode : Lossy
Stream size : 115 MiB (9%)
Default : Yes
Forced : No

Text
ID : 3
Format : UTF-8
Codec ID : S_TEXT/UTF8
Codec ID/Info : UTF-8 Plain Text
Language : English
Default : No
Forced : No


Screenshots:

History Channel - Ancient Aliens: The Wisdom Keepers (2016)

History Channel - Ancient Aliens: The Wisdom Keepers (2016)

History Channel - Ancient Aliens: The Wisdom Keepers (2016)

History Channel - Ancient Aliens: The Wisdom Keepers (2016)