History Channel - Ancient Aliens: The Prototypes (2016)

Posted By: notbanned
History Channel - Ancient Aliens: The Prototypes (2016)

History Channel - Ancient Aliens: The Prototypes (2016)
HDTV | 1280x720 | .MKV/AVC @ 2627 Kbps | 41mn 58s | 922 MiB
Audio: English AC3 384 kbps, 6 channels | Subs: English
Genre: Documentary

Recent archaeological discoveries reveal a very different picture of what life on Earth looked like in the remote past. It was a real-life version of "Lord of the Rings," where humans shared the planet with various different types of intelligent human-like species, such as Neanderthals, Denisovans, and even hobbits. But how is it that these various hominid species developed separately in isolated pockets of the globe? And why does no fossil evidence exist suggesting a slow gradual delineation from a common species? Ancient Astronaut theorists suggest these different intelligent species seem to have come straight out of the incubator, and that Earth itself may have served as an extraterrestrial laboratory. A laboratory where different human prototypes once existed–but only one species was chosen to survive. Is mankind the result of an extraterrestrial experiment?
More info


General
Unique ID : 183282067471663362762213240995095604124 (0x89E2D79A80EBD9438EDD0F58C1216B9C)
Complete name : Ancient.Aliens.S11E10.The.Prototypes.mkv
Format : Matroska
Format version : Version 4 / Version 2
File size : 922 MiB
Duration : 41mn 58s
Overall bit rate : 3 072 Kbps

Video
ID : 1
Format : AVC
Format/Info : Advanced Video Codec
Format profile : High@L4.1
Format settings, CABAC : Yes
Format settings, ReFrames : 5 frames
Codec ID : V_MPEG4/ISO/AVC
Duration : 41mn 58s
Bit rate : 2 627 Kbps
Width : 1 280 pixels
Height : 720 pixels
Display aspect ratio : 16:9
Frame rate mode : Constant
Frame rate : 23.976 fps
Color space : YUV
Chroma subsampling : 4:2:0
Bit depth : 8 bits
Scan type : Progressive
Bits/(Pixel*Frame) : 0.119
Stream size : 789 MiB (86%)
Writing library : x264 core 148 r2705 3f5ed56
Encoding settings : cabac=1 / ref=5 / deblock=1:0:0 / analyse=0x3:0x113 / me=umh / subme=8 / psy=1 / psy_rd=1.00:0.00 / mixed_ref=1 / me_range=16 / chroma_me=1 / trellis=1 / 8x8dct=1 / cqm=0 / deadzone=21,11 / fast_pskip=1 / chroma_qp_offset=-2 / threads=12 / lookahead_threads=2 / sliced_threads=0 / nr=0 / decimate=1 / interlaced=0 / bluray_compat=0 / constrained_intra=0 / bframes=3 / b_pyramid=2 / b_adapt=2 / b_bias=0 / direct=3 / weightb=1 / open_gop=0 / weightp=2 / keyint=250 / keyint_min=23 / scenecut=40 / intra_refresh=0 / rc_lookahead=50 / rc=crf / mbtree=1 / crf=20.0 / qcomp=0.60 / qpmin=0 / qpmax=69 / qpstep=4 / ip_ratio=1.40 / aq=1:1.00
Default : Yes
Forced : No
Color range : Limited
Matrix coefficients : BT.709

Audio
ID : 2
Format : AC-3
Format/Info : Audio Coding 3
Mode extension : CM (complete main)
Format settings, Endianness : Big
Codec ID : A_AC3
Duration : 41mn 58s
Bit rate mode : Constant
Bit rate : 384 Kbps
Channel(s) : 6 channels
Channel positions : Front: L C R, Side: L R, LFE
Sampling rate : 48.0 KHz
Compression mode : Lossy
Stream size : 115 MiB (13%)
Default : Yes
Forced : No

Text
ID : 3
Format : UTF-8
Codec ID : S_TEXT/UTF8
Codec ID/Info : UTF-8 Plain Text
Language : English
Default : No
Forced : No


Screenshots:

History Channel - Ancient Aliens: The Prototypes (2016)

History Channel - Ancient Aliens: The Prototypes (2016)

History Channel - Ancient Aliens: The Prototypes (2016)

History Channel - Ancient Aliens: The Prototypes (2016)