History Channel - Ancient Aliens: Shiva the Destroyer (2016)

Posted By: notbanned
History Channel - Ancient Aliens: Shiva the Destroyer (2016)

History Channel - Ancient Aliens: Shiva the Destroyer (2016)
HDTV | 1280x720 | .MKV/AVC @ 3071 Kbps | 41mn 57s | 1.03 GiB
Audio: English AC3 384 kbps, 6 channels | Subs: English
Genre: Documentary

Of the millions of Hindu gods, none is more important than Shiva–the great destroyer. Ancient Astronaut theorists suggest this powerful being that possessed flying machines, incredible weapons, and had supernatural abilities may, in fact, have been the leader of an extraterrestrial faction that came to Earth wielding advanced technology.


General
Unique ID : 217953345974113487733492866996434522850 (0xA3F8499CD14129C09DF671D5D0B252E2)
Complete name : Ancient.Aliens.S11E15.Shiva.the.Destroyer.720p.mkv
Format : Matroska
Format version : Version 4 / Version 2
File size : 1.03 GiB
Duration : 41mn 57s
Overall bit rate : 3 525 Kbps

Video
ID : 1
Format : AVC
Format/Info : Advanced Video Codec
Format profile : High@L4.1
Format settings, CABAC : Yes
Format settings, ReFrames : 5 frames
Codec ID : V_MPEG4/ISO/AVC
Duration : 41mn 57s
Bit rate : 3 071 Kbps
Width : 1 280 pixels
Height : 720 pixels
Display aspect ratio : 16:9
Frame rate mode : Constant
Frame rate : 23.976 fps
Color space : YUV
Chroma subsampling : 4:2:0
Bit depth : 8 bits
Scan type : Progressive
Bits/(Pixel*Frame) : 0.139
Stream size : 922 MiB (87%)
Writing library : x264 core 148 r2705 3f5ed56
Encoding settings : cabac=1 / ref=5 / deblock=1:0:0 / analyse=0x3:0x113 / me=umh / subme=8 / psy=1 / psy_rd=1.00:0.00 / mixed_ref=1 / me_range=16 / chroma_me=1 / trellis=1 / 8x8dct=1 / cqm=0 / deadzone=21,11 / fast_pskip=1 / chroma_qp_offset=-2 / threads=12 / lookahead_threads=2 / sliced_threads=0 / nr=0 / decimate=1 / interlaced=0 / bluray_compat=0 / constrained_intra=0 / bframes=3 / b_pyramid=2 / b_adapt=2 / b_bias=0 / direct=3 / weightb=1 / open_gop=0 / weightp=2 / keyint=250 / keyint_min=23 / scenecut=40 / intra_refresh=0 / rc_lookahead=50 / rc=crf / mbtree=1 / crf=20.0 / qcomp=0.60 / qpmin=0 / qpmax=69 / qpstep=4 / ip_ratio=1.40 / aq=1:1.00
Default : Yes
Forced : No
Color range : Limited
Matrix coefficients : BT.709

Audio
ID : 2
Format : AC-3
Format/Info : Audio Coding 3
Mode extension : CM (complete main)
Format settings, Endianness : Big
Codec ID : A_AC3
Duration : 41mn 57s
Bit rate mode : Constant
Bit rate : 384 Kbps
Channel(s) : 6 channels
Channel positions : Front: L C R, Side: L R, LFE
Sampling rate : 48.0 KHz
Compression mode : Lossy
Stream size : 115 MiB (11%)
Default : Yes
Forced : No

Text
ID : 3
Format : UTF-8
Codec ID : S_TEXT/UTF8
Codec ID/Info : UTF-8 Plain Text
Language : English
Default : No
Forced : No


Screenshots:

History Channel - Ancient Aliens: Shiva the Destroyer (2016)

History Channel - Ancient Aliens: Shiva the Destroyer (2016)

History Channel - Ancient Aliens: Shiva the Destroyer (2016)

History Channel - Ancient Aliens: Shiva the Destroyer (2016)