Discovery Channel - Animal Planet: Hero Dogs of 9/11 (2013)

Posted By: notbanned
Discovery Channel - Animal Planet: Hero Dogs of 9/11 (2013)

Discovery Channel - Animal Planet: Hero Dogs of 9/11 (2013)
HDTV | 1280x720 | .MKV/AVC @ 4112 Kbps | 41mn 16s | Audio: English AC3 384 kbps, 6 channels | Subs: None | 1.32 GiB
Genre: Documentary

Hero Dogs of 9/11 commemorates the 12th anniversary of the September 11 terrorist attacks on the World Trade Center and the Pentagon. The special details the stories of three World Trade Center survivors, and the working dogs that saved lives at Ground Zero. More than 300 dogs were used in the rescue and recovery operation. One of the survivors profiled, who is blind, was led out of the building by his seeing eye dog. Another, who'd been working at the scene with a bomb-sniffing dog, was pulled from the rubble by a rescue dog. The third was the last survivor to be discovered by a dog and pulled from the rubble, 27 hours after the center collapsed.


General
Unique ID : 185436308094948775516819301336798079489 (0x8B81BBDDD57FB14A81DD461E57CA2A01)
Complete name : Animal.Planet.Hero.Dogs.of.9.11.mkv
Format : Matroska
Format version : Version 2
File size : 1.32 GiB
Duration : 41mn 16s
Overall bit rate : 4 587 Kbps
Encoded date : UTC 2013-09-11 10:14:33
Writing application : mkvmerge v4.8.0 ('SALVATION') built on May 24 2011 03:12:58
Writing library : libebml v1.2.0 + libmatroska v1.1.0

Video
ID : 1
Format : AVC
Format/Info : Advanced Video Codec
Format profile : High@L4.1
Format settings, CABAC : Yes
Format settings, ReFrames : 5 frames
Codec ID : V_MPEG4/ISO/AVC
Duration : 41mn 16s
Bit rate : 4 112 Kbps
Width : 1 280 pixels
Height : 720 pixels
Display aspect ratio : 16:9
Frame rate : 29.970 fps
Color space : YUV
Chroma subsampling : 4:2:0
Bit depth : 8 bits
Scan type : Progressive
Bits/(Pixel*Frame) : 0.149
Stream size : 1.19 GiB (90%)
Writing library : x264 core 138 r2358 9e941d1
Encoding settings : cabac=1 / ref=5 / deblock=1:0:0 / analyse=0x3:0x113 / me=umh / subme=8 / psy=1 / psy_rd=1.00:0.00 / mixed_ref=1 / me_range=16 / chroma_me=1 / trellis=1 / 8x8dct=1 / cqm=0 / deadzone=21,11 / fast_pskip=1 / chroma_qp_offset=-2 / threads=6 / lookahead_threads=1 / sliced_threads=0 / nr=0 / decimate=1 / interlaced=0 / bluray_compat=0 / constrained_intra=0 / bframes=3 / b_pyramid=2 / b_adapt=2 / b_bias=0 / direct=3 / weightb=1 / open_gop=0 / weightp=2 / keyint=250 / keyint_min=25 / scenecut=40 / intra_refresh=0 / rc_lookahead=50 / rc=crf / mbtree=1 / crf=21.0 / qcomp=0.60 / qpmin=0 / qpmax=69 / qpstep=4 / ip_ratio=1.40 / aq=1:1.00
Default : Yes
Forced : No

Audio
ID : 2
Format : AC-3
Format/Info : Audio Coding 3
Mode extension : CM (complete main)
Format settings, Endianness : Big
Codec ID : A_AC3
Duration : 41mn 16s
Bit rate mode : Constant
Bit rate : 384 Kbps
Channel(s) : 6 channels
Channel positions : Front: L C R, Side: L R, LFE
Sampling rate : 48.0 KHz
Bit depth : 16 bits
Compression mode : Lossy
Stream size : 113 MiB (8%)
Default : Yes
Forced : No


Screenshots:

Discovery Channel - Animal Planet: Hero Dogs of 9/11 (2013)

Discovery Channel - Animal Planet: Hero Dogs of 9/11 (2013)

Discovery Channel - Animal Planet: Hero Dogs of 9/11 (2013)

Discovery Channel - Animal Planet: Hero Dogs of 9/11 (2013)