Subcategories

Animali fantastici e dove trovarli (2016)

Posted By: JohnSmith
Animali fantastici e dove trovarli (2016)

Animali fantastici e dove trovarli / Fantastic Beasts and Where to Find Them (2016)
TS | AVI / XviD@1833 kb/s | 720x320 | 2h 4mn | 1.71 GB | Italian: MP3, 128 kb/s (2 ch)
Genre: Adventure | Family | Fantasy

Le avventure dello scrittore Newt Scamander, un preminente mago zoologo del mondo dei maghi, che per trovare e documentare la vita di creature magiche si ferma a New York. Tra maghi e streghe, le sue storie saranno lette settant'anni dopo da Harry Potter nella scuola di Hogwarts.




General
Complete name : D:\Animali.Fantastici.E.Dove.Trovarli.2016.iTALiAN.MD.TELESYNC.XviD-GENiSYS.avi
Format : AVI
Format/Info : Audio Video Interleave
File size : 1.71 GiB
Duration : 2 h 4 min
Overall bit rate : 1 973 kb/s
Writing library : VirtualDub build 35491/release

Video
ID : 0
Format : MPEG-4 Visual
Format profile : Advanced Simple@L5
Format settings, BVOP : 2
Format settings, QPel : No
Format settings, GMC : No warppoints
Format settings, Matrix : Default (MPEG)
Muxing mode : Packed bitstream
Codec ID : XVID
Codec ID/Hint : XviD
Duration : 2 h 4 min
Bit rate : 1 833 kb/s
Width : 720 pixels
Height : 320 pixels
Display aspect ratio : 2.25:1
Frame rate : 30.000 FPS
Color space : YUV
Chroma subsampling : 4:2:0
Bit depth : 8 bits
Scan type : Progressive
Compression mode : Lossy
Bits/(Pixel*Frame) : 0.265
Stream size : 1.59 GiB (93%)
Writing library : XviD 67

Audio
ID : 1
Format : MPEG Audio
Format version : Version 1
Format profile : Layer 3
Mode : Joint stereo
Codec ID : 55
Codec ID/Hint : MP3
Duration : 2 h 4 min
Bit rate mode : Constant
Bit rate : 128 kb/s
Channel(s) : 2 channels
Sampling rate : 48.0 kHz
Compression mode : Lossy
Stream size : 114 MiB (6%)
Alignment : Split accross interleaves
Interleave, duration : 33 ms (1.00 video frame)
Interleave, preload duratio : 500 ms
Writing library : LAME3.99rЄ




Screenshots

Animali fantastici e dove trovarli (2016)

Animali fantastici e dove trovarli (2016)

Animali fantastici e dove trovarli (2016)