Animali fantastici e dove trovarli (2016)

Posted By: JohnSmith
Animali fantastici e dove trovarli (2016)

Animali fantastici e dove trovarli / Fantastic Beasts and Where to Find Them (2016)
WEBRip MD | AVI / XviD@1303 kb/s | 720x304 | 2h 12mn | 1.33 GB
Italian: MP3, 128 kb/s (2 ch) | Subtitles: Korean (hardcoded)
Genre: Adventure | Family | Fantasy

Le avventure dello scrittore Newt Scamander, un preminente mago zoologo del mondo dei maghi, che per trovare e documentare la vita di creature magiche si ferma a New York. Tra maghi e streghe, le sue storie saranno lette settant'anni dopo da Harry Potter nella scuola di Hogwarts.




General
Complete name : D:\Animali.Fantastici.E.Dove.Trovarli.2016.iTALiAN.MD.WEBRip.R3.XviD-GENiSYS.avi
Format : AVI
Format/Info : Audio Video Interleave
File size : 1.33 GiB
Duration : 2 h 12 min
Overall bit rate : 1 433 kb/s
Writing application : AVI-Mux GUI 1.17.8.3, Feb 16 201019:42:50
Writing library : VirtualDub build 35491/release

Video
ID : 0
Format : MPEG-4 Visual
Format profile : Advanced Simple@L5
Format settings, BVOP : 2
Format settings, QPel : No
Format settings, GMC : No warppoints
Format settings, Matrix : Default (H.263)
Muxing mode : Packed bitstream
Codec ID : XVID
Codec ID/Hint : XviD
Duration : 2 h 12 min
Bit rate : 1 303 kb/s
Width : 720 pixels
Height : 304 pixels
Display aspect ratio : 2.35:1
Frame rate : 29.970 (29970/1000) FPS
Color space : YUV
Chroma subsampling : 4:2:0
Bit depth : 8 bits
Scan type : Progressive
Compression mode : Lossy
Bits/(Pixel*Frame) : 0.199
Stream size : 1.21 GiB (91%)
Writing library : XviD 66

Audio
ID : 1
Format : MPEG Audio
Format version : Version 1
Format profile : Layer 3
Mode : Joint stereo
Mode extension : MS Stereo
Codec ID : 55
Codec ID/Hint : MP3
Duration : 2 h 4 min
Bit rate mode : Constant
Bit rate : 128 kb/s
Channel(s) : 2 channels
Sampling rate : 48.0 kHz
Compression mode : Lossy
Stream size : 114 MiB (8%)
Alignment : Split accross interleaves
Interleave, duration : 36 ms (1.07 video frame)
Interleave, preload duratio : 500 ms
Writing library : LAME3.99r
Encoding settings : -m j -V 4 -q 3 -lowpass 17 -b 128




Screenshots

Animali fantastici e dove trovarli (2016)

Animali fantastici e dove trovarli (2016)

Animali fantastici e dove trovarli (2016)