Anthony Bourdain - Parts Unknown: Uruguay (2018)

Posted By: notbanned
720p (HD) / HDTV
Anthony Bourdain - Parts Unknown: Uruguay (2018)

Anthony Bourdain - Parts Unknown: Uruguay (2018)
HDTV | 1280x720 | .MKV/AVC @ 3161 Kbps | 42 min 31 s | 1010 MiB
Audio: English AAC 159 kbps, 2 channels | Subs: None
Genre: Documentary

Anthony Bourdain returns to Uruguay after a decade away and finds a progressive nation in the midst of social change, but with evident fragments of its colonial past, most notably in its local cuisine.

General
Unique ID : 8837505164522359730431737047952453252 (0x6A60AA52F0626B1430E7A2E731CEE84)
Complete name : Anthony.Bourdain.Parts.Unknown.Uruguay.720p.mkv
Format : Matroska
Format version : Version 4 / Version 2
File size : 1 010 MiB
Duration : 42 min 31 s
Overall bit rate : 3 322 kb/s

Video
ID : 1
Format : AVC
Format/Info : Advanced Video Codec
Format profile : Main@L4
Format settings, CABAC : Yes
Format settings, ReFrames : 5 frames
Codec ID : V_MPEG4/ISO/AVC
Duration : 42 min 31 s
Bit rate : 3 161 kb/s
Width : 1 280 pixels
Height : 720 pixels
Display aspect ratio : 16:9
Frame rate mode : Constant
Frame rate : 23.976 (24000/1001) FPS
Color space : YUV
Chroma subsampling : 4:2:0
Bit depth : 8 bits
Scan type : Progressive
Bits/(Pixel*Frame) : 0.143
Stream size : 961 MiB (95%)
Writing library : x264 core 155 r2893 b00bcaf
Encoding settings : cabac=1 / ref=5 / deblock=1:0:0 / analyse=0x1:0x111 / me=hex / subme=8 / psy=1 / psy_rd=1.00:0.00 / mixed_ref=1 / me_range=16 / chroma_me=1 / trellis=2 / 8x8dct=0 / cqm=0 / deadzone=21,11 / fast_pskip=1 / chroma_qp_offset=-2 / threads=12 / lookahead_threads=2 / sliced_threads=0 / nr=0 / decimate=1 / interlaced=0 / bluray_compat=0 / constrained_intra=0 / bframes=3 / b_pyramid=2 / b_adapt=1 / b_bias=0 / direct=3 / weightb=1 / open_gop=0 / weightp=2 / keyint=240 / keyint_min=24 / scenecut=40 / intra_refresh=0 / rc_lookahead=50 / rc=crf / mbtree=1 / crf=19.0 / qcomp=0.60 / qpmin=0 / qpmax=69 / qpstep=4 / vbv_maxrate=20000 / vbv_bufsize=25000 / crf_max=0.0 / nal_hrd=none / filler=0 / ip_ratio=1.40 / aq=1:1.00
Default : Yes
Forced : No
Color range : Limited
Color primaries : BT.709
Transfer characteristics : BT.709
Matrix coefficients : BT.709

Audio
ID : 2
Format : AAC
Format/Info : Advanced Audio Codec
Format profile : LC
Codec ID : A_AAC
Duration : 42 min 31 s
Bit rate : 159 kb/s
Channel(s) : 2 channels
Channel positions : Front: L R
Sampling rate : 48.0 kHz
Frame rate : 46.875 FPS (1024 spf)
Compression mode : Lossy
Delay relative to video : -44 ms
Stream size : 48.2 MiB (5%)
Default : Yes
Forced : No


Screenshots:

Anthony Bourdain - Parts Unknown: Uruguay (2018)

Anthony Bourdain - Parts Unknown: Uruguay (2018)

Anthony Bourdain - Parts Unknown: Uruguay (2018)

Anthony Bourdain - Parts Unknown: Uruguay (2018)