Art Bastard (2016)

Posted By: notbanned
Art Bastard (2016)

Art Bastard (2016)
DVDRip | 720x406 | .MKV/AVC @ 1578 Kbps | 1h 24min | 1.00 GiB
Audio: English AAC 115 kbps, 2 channels | Subs: None
Genre: Documentary | Biography | Comedy | History

What is art and how does it relate to society? Is its value determined by its popularity or originality? Is the goal profit or expressing one's personal vision? These are some of the questions raised as we follow fiercely independent New York artist Robert Cenedella in his artistic journey through decades of struggling for creative expression. A student, protégé and friend of German artist George Grosz, Cenedella is now passing on the legacy of Grosz's approach to art, in the very same room where Grosz taught. In portraying Cenedella's determination to buck the system of what's popular while critiquing that popularity in his attempt to turn the art world upside down, ART BASTARD is a funny, touching, and insightful look inside the maverick mind of a true original.
More info


General
Unique ID : 193734580202774127910201570880692207506 (0x91BFEC44FB625F24BBB886653190BF92)
Complete name : Art.Bastard.2016.DVDRip.mkv
Format : Matroska
Format version : Version 2
File size : 1.00 GiB
Duration : 1 h 24 min
Overall bit rate : 1 695 kb/s

Video
ID : 1
Format : AVC
Format/Info : Advanced Video Codec
Format profile : High@L3.1
Format settings, CABAC : Yes
Format settings, ReFrames : 5 frames
Codec ID : V_MPEG4/ISO/AVC
Duration : 1 h 24 min
Bit rate : 1 578 kb/s
Width : 720 pixels
Height : 406 pixels
Display aspect ratio : 16:9
Frame rate mode : Constant
Frame rate : 29.970 (29970/1000) FPS
Original frame rate : 29.970 (30000/1001) FPS
Color space : YUV
Chroma subsampling : 4:2:0
Bit depth : 8 bits
Scan type : Progressive
Bits/(Pixel*Frame) : 0.180
Stream size : 954 MiB (93%)
Writing library : x264 core 150 r2833 df79067
Encoding settings : cabac=1 / ref=5 / deblock=1:0:0 / analyse=0x3:0x113 / me=hex / subme=8 / psy=1 / psy_rd=1.00:0.00 / mixed_ref=1 / me_range=16 / chroma_me=1 / trellis=2 / 8x8dct=1 / cqm=0 / deadzone=21,11 / fast_pskip=1 / chroma_qp_offset=-2 / threads=12 / lookahead_threads=2 / sliced_threads=0 / nr=0 / decimate=1 / interlaced=0 / bluray_compat=0 / constrained_intra=0 / bframes=3 / b_pyramid=2 / b_adapt=1 / b_bias=0 / direct=3 / weightb=1 / open_gop=0 / weightp=2 / keyint=300 / keyint_min=29 / scenecut=40 / intra_refresh=0 / rc_lookahead=50 / rc=crf / mbtree=1 / crf=19.0 / qcomp=0.60 / qpmin=10 / qpmax=51 / qpstep=4 / vbv_maxrate=17500 / vbv_bufsize=17500 / crf_max=0.0 / nal_hrd=none / filler=0 / ip_ratio=1.40 / aq=1:1.00
Language : English
Default : Yes
Forced : No

Audio
ID : 2
Format : AAC
Format/Info : Advanced Audio Codec
Format profile : LC
Codec ID : A_AAC
Duration : 1 h 24 min
Bit rate : 115 kb/s
Channel(s) : 2 channels
Channel positions : Front: L R
Sampling rate : 48.0 kHz
Frame rate : 46.875 FPS (1024 spf)
Compression mode : Lossy
Delay relative to video : 9 ms
Stream size : 69.4 MiB (7%)
Language : English
Default : Yes
Forced : No


Screenshots:

Art Bastard (2016)

Art Bastard (2016)

Art Bastard (2016)

Art Bastard (2016)