BBC - Love Me Do The Beatles '62 (2013)

Posted By: Polik88
BBC - Love Me Do The Beatles '62 (2013)

BBC - Love Me Do The Beatles '62 (2013)
PDTV | English | AVI/XVID 25.000 fps 1005 Kbps | 608x336 | MP3 256 Kbps 48.0 khz | 58mn 55s | 535 MB
Genre: Documentary

On October 5th 1962 the Beatles released their first single, Love Me Do. It was a moment that changed music history and popular culture forever. It was also an extraordinary year in social and cultural history, not just for Liverpool but for the world, with the Cuban missile crisis, John Glenn in space and beer at a shilling a pint.Stuart Maconie explores how the Beatles changed from leather and slicked back hair to suits and Beatle mops, and how their fashion set the pace for the sixties to follow. Pop artist Sir Peter Blake, Bob Harris and former Beatles drummer Pete Best join friends to reflect on how the Beatles evolved into John, Paul, George and Ringo - the most famous band in the world.
General
Complete name : Love.Me.Do.TheBeatles.62.avi
Format : AVI
Format/Info : Audio Video Interleave
File size : 535 MiB
Duration : 58mn 55s
Overall bit rate : 1 270 Kbps
Writing application : VirtualDubMod 1.5.10.2 (build 2540/release)
Writing library : VirtualDubMod build 2540/release

Video
ID : 0
Format : MPEG-4 Visual
Format profile : Advanced Simple@L5
Format settings, BVOP : 2
Format settings, QPel : No
Format settings, GMC : No warppoints
Format settings, Matrix : Default (H.263)
Muxing mode : Packed bitstream
Codec ID : XVID
Codec ID/Hint : XviD
Duration : 58mn 55s
Bit rate : 1 005 Kbps
Width : 608 pixels
Height : 336 pixels
Display aspect ratio : 16:9
Frame rate : 25.000 fps
Color space : YUV
Chroma subsampling : 4:2:0
Bit depth : 8 bits
Scan type : Progressive
Compression mode : Lossy
Bits/(Pixel*Frame) : 0.197
Stream size : 423 MiB (79%)
Writing library : XviD 1.2.1 (UTC 2008-12-04)

Audio
ID : 1
Format : MPEG Audio
Format version : Version 1
Format profile : Layer 3
Mode : Joint stereo
Mode extension : MS Stereo
Codec ID : 55
Codec ID/Hint : MP3
Duration : 58mn 55s
Bit rate mode : Constant
Bit rate : 256 Kbps
Channel(s) : 2 channels
Sampling rate : 48.0 KHz
Compression mode : Lossy
Stream size : 108 MiB (20%)
Alignment : Aligned on interleaves
Interleave, duration : 40 ms (1.00 video frame)
Interleave, preload duration : 504 ms
Writing library : LAME3.98.2

Screenshots

BBC - Love Me Do The Beatles '62 (2013)

BBC - Love Me Do The Beatles '62 (2013)

BBC - Love Me Do The Beatles '62 (2013)

no mirrors please, Follow The Rules
Visit Polik88 Blog Here
no password