BBC - The Incredible Human Journey (2009) (Repost)

Posted By: Polik88
BBC - The Incredible Human Journey (2009) (Repost)

BBC - The Incredible Human Journey (2009) (Repost)
DVDRip | English | AVI/XVID 25.000 fps 1560 Kbps | 704x400 | AC3 192 Kbps 48.0 khz | 5x59mn | 5x744 MB
Genre: Documentary

The Incredible Human Journey is a five-episode science documentary and accompanying book, written and presented by Alice Roberts, and first broadcast on BBC television in May and June 2009 in the United Kingdom. It explains the evidence for the theory of early human migrations out of Africa and subsequently around the world, arguing that all modern humans are descended from African homo sapiens. Each episode concerns a different continent, and the series features scenes filmed on location in each of the continents featured.
General
Complete name : BBC.The.Incredible.Human.Journey.1of5.Out.of.Africa.avi
Format : AVI
Format/Info : Audio Video Interleave
File size : 744 MiB
Duration : 59mn 4s
Overall bit rate : 1 762 Kbps
Writing application : VirtualDubMod 1.5.10.2 (build 2542/release)
Writing library : VirtualDubMod build 2542/release

Video
ID : 0
Format : MPEG-4 Visual
Format profile : Advanced Simple@L5
Format settings, BVOP : 2
Format settings, QPel : No
Format settings, GMC : No warppoints
Format settings, Matrix : Custom
Codec ID : XVID
Codec ID/Hint : XviD
Duration : 59mn 4s
Bit rate : 1 560 Kbps
Width : 704 pixels
Height : 400 pixels
Display aspect ratio : 16:9
Frame rate : 25.000 fps
Color space : YUV
Chroma subsampling : 4:2:0
Bit depth : 8 bits
Scan type : Progressive
Compression mode : Lossy
Bits/(Pixel*Frame) : 0.222
Stream size : 659 MiB (89%)
Writing library : XviD 1.2.1 (UTC 2008-12-04)

Audio
ID : 1
Format : AC-3
Format/Info : Audio Coding 3
Mode extension : CM (complete main)
Format settings, Endianness : Big
Codec ID : 2000
Duration : 59mn 4s
Bit rate mode : Constant
Bit rate : 192 Kbps
Channel(s) : 2 channels
Channel positions : Front: L R
Sampling rate : 48.0 KHz
Bit depth : 16 bits
Compression mode : Lossy
Stream size : 81.1 MiB (11%)
Alignment : Split accross interleaves
Interleave, duration : 40 ms (1.00 video frame)
Interleave, preload duration : 500 ms

Screenshots

BBC - The Incredible Human Journey (2009) (Repost)

BBC - The Incredible Human Journey (2009) (Repost)

BBC - The Incredible Human Journey (2009) (Repost)

no mirrors please, Follow The Rules
Visit Polik88 Blog Here
no password