BBC - The Railway Keeping Britain On Track (2013)

Posted By: Polik88
BBC - The Railway Keeping Britain On Track (2013)

BBC - The Railway Keeping Britain On Track (2013)
English | MP4 | 720x404 | AVC 999 Kbps 25.000 fps | AAC 124 Kbps 48.0 khz | 58mn 54s | 475 MB
Genre: Documentary

King's Cross - Documentary going behind the scenes of the UK's rail network, revealing the inner workings of one of Britain's biggest institutions. At London's King's Cross station, platform staff search for late drivers to keep trains running on time, while management are on a recruitment drive for the new multimillion-pound western concourse. Train dispatcher Laxman has an emotional week as he prepares to leave and head off into retirement after 35 years working at the terminal.
General
Complete name : The Railway Keeping Britain On Track.mp4
Format : MPEG-4
Format profile : Base Media / Version 2
Codec ID : mp42
File size : 475 MiB
Duration : 58mn 54s
Overall bit rate mode : Variable
Overall bit rate : 1 127 Kbps
Encoded date : UTC 2013-02-11 22:39:37
Tagged date : UTC 2013-02-11 22:39:37

Video
ID : 201
Format : AVC
Format/Info : Advanced Video Codec
Format profile : High@L3.1
Format settings, CABAC : Yes
Format settings, ReFrames : 6 frames
Codec ID : avc1
Codec ID/Info : Advanced Video Coding
Duration : 58mn 54s
Bit rate : 999 Kbps
Maximum bit rate : 3 301 Kbps
Width : 720 pixels
Height : 404 pixels
Display aspect ratio : 16:9
Frame rate mode : Constant
Frame rate : 25.000 fps
Color space : YUV
Chroma subsampling : 4:2:0
Bit depth : 8 bits
Scan type : Progressive
Bits/(Pixel*Frame) : 0.137
Stream size : 421 MiB (89%)
Writing library : x264 core 129 r2245 bc13772
Encoding settings : cabac=1 / ref=6 / deblock=1:0:0 / analyse=0x3:0x113 / me=umh / subme=8 / psy=1 / psy_rd=1.00:0.00 / mixed_ref=1 / me_range=16 / chroma_me=1 / trellis=1 / 8x8dct=1 / cqm=0 / deadzone=21,11 / fast_pskip=1 / chroma_qp_offset=-2 / threads=9 / lookahead_threads=1 / sliced_threads=0 / nr=0 / decimate=1 / interlaced=0 / bluray_compat=0 / constrained_intra=0 / bframes=3 / b_pyramid=2 / b_adapt=2 / b_bias=0 / direct=3 / weightb=1 / open_gop=0 / weightp=2 / keyint=250 / keyint_min=25 / scenecut=40 / intra_refresh=0 / rc_lookahead=50 / rc=crf / mbtree=1 / crf=21.0 / qcomp=0.60 / qpmin=0 / qpmax=69 / qpstep=4 / ip_ratio=1.40 / aq=1:1.00
Encoded date : UTC 2013-02-11 22:39:37
Tagged date : UTC 2013-02-11 22:39:48

Audio
ID : 101
Format : AAC
Format/Info : Advanced Audio Codec
Format profile : LC
Codec ID : 40
Duration : 58mn 54s
Bit rate mode : Variable
Bit rate : 124 Kbps
Maximum bit rate : 130 Kbps
Channel(s) : 2 channels
Channel positions : Front: L R
Sampling rate : 48.0 KHz
Compression mode : Lossy
Stream size : 52.2 MiB (11%)
Encoded date : UTC 2013-02-11 22:39:37
Tagged date : UTC 2013-02-11 22:39:48

Screenshots

BBC - The Railway Keeping Britain On Track (2013)

BBC - The Railway Keeping Britain On Track (2013)

BBC - The Railway Keeping Britain On Track (2013)

no mirrors please, Follow The Rules
Visit Polik88 Blog Here
no password