BBC - The Sound And The Fury: A Century Of Music (2013)

Posted By: Polik88
BBC - The Sound And The Fury: A Century Of Music (2013)

BBC - The Sound And The Fury: A Century Of Music (2013)
PDTV | English | AVI/DIVX 25.000 fps 1020 Kbps | 640x360 | MP3 128 Kbps 44.1 khz | 59mn 35s | 494 MB
Genre: Documentary

The first episode looks at the shift in the language and sound of music from the beautiful melodies and harmonies of the giants of classical music such as Mozart, Haydn and Brahms into the fragmented, abstract, discordant sound of the most radical composers of the new century – Schoenberg, Webern, Stravinsky and beyond. It examines how this new music, which can perplex and upset even the most contemporary of audiences, was a response to the huge upheaval in the world at the start of the 20th century – with its developments in technology, science, modern art and the tumult of the First World War. Featuring specially-shot performances of some of the key works of the period, performed by the London Sinfonietta, members of the Aurora Orchestra and the American composer and pianist Timothy Andres, the story of this radical episode in music history is brought to life through the contributions of some of the biggest names in modern classical music, among them Steve Reich, John Adams, Michael Tilson Thomas, Pierre Boulez, George Benjamin and Alex Ross, music critic of the New Yorker.
General
Complete name : The.Sound.And.The.Fury.A.Century.Of.Music.avi
Format : AVI
Format/Info : Audio Video Interleave
File size : 494 MiB
Duration : 59mn 35s
Overall bit rate : 1 160 Kbps
Writing library : MPlayer

Video
ID : 0
Format : MPEG-4 Visual
Format profile : Simple@L1
Format settings, BVOP : No
Format settings, QPel : No
Format settings, GMC : No warppoints
Format settings, Matrix : Default (H.263)
Codec ID : DX50
Codec ID/Hint : DivX 5
Duration : 59mn 34s
Bit rate : 1 020 Kbps
Width : 640 pixels
Height : 360 pixels
Display aspect ratio : 16:9
Frame rate : 25.000 fps
Color space : YUV
Chroma subsampling : 4:2:0
Bit depth : 8 bits
Scan type : Progressive
Compression mode : Lossy
Bits/(Pixel*Frame) : 0.177
Stream size : 434 MiB (88%)
Writing library : Lavc52.58.0

Audio
ID : 1
Format : MPEG Audio
Format version : Version 1
Format profile : Layer 3
Mode : Joint stereo
Mode extension : MS Stereo
Codec ID : 55
Codec ID/Hint : MP3
Duration : 59mn 35s
Bit rate mode : Constant
Bit rate : 128 Kbps
Channel(s) : 2 channels
Sampling rate : 44.1 KHz
Compression mode : Lossy
Stream size : 54.6 MiB (11%)
Alignment : Aligned on interleaves
Interleave, duration : 26 ms (0.65 video frame)
Interleave, preload duration : 522 ms

Screenshots

BBC - The Sound And The Fury: A Century Of Music (2013)

BBC - The Sound And The Fury: A Century Of Music (2013)

BBC - The Sound And The Fury: A Century Of Music (2013)

no mirrors please, Follow The Rules
Visit Polik88 Blog Here
no password