BBC - The Story Of Science (2010) (Repost)

Posted By: Polik88
BBC - The Story Of Science (2010) (Repost)

BBC - The Story Of Science (2010) (Repost)
DVDRip | English | AVI/XVID 25.000 fps 1158 Kbps | 640x352 | MP3 129 Kbps 48.0 khz | 6x59mn | 6x550 MB
Genre: Documentary

The Story Of Science: power, proof and passion; tells the story of the forces that came together to create scientific knowledge; the practical business of making instruments and machines; the great forces of history – revolutions, voyages of discovery and artistic movements – and the dogged determination of scientists and experimenters. This is the story of how scientific ideas shaped the modern world and how science made history. For 3,000 years people have wrestled with the great questions of existence. What is out there, what is the world made of, where did we come from?

Episode 1: What Is Out There?
Episode 2: What Is the World Made of?
Episode 3: How Did We Get Here?
Episode 4: Can We Have Unlimited Power?
Episode 5: What Is the Secret of Life?
Episode 6: Who Are We?
General
Complete name : the.story.of.science.1x01.avi
Format : AVI
Format/Info : Audio Video Interleave
File size : 550 MiB
Duration : 59mn 9s
Overall bit rate mode : Variable
Overall bit rate : 1 299 Kbps
Writing application : VirtualDubMod 1.5.10.2 (build 2540/release)
Writing library : VirtualDubMod build 2540/release

Video
ID : 0
Format : MPEG-4 Visual
Format profile : Advanced Simple@L5
Format settings, BVOP : 2
Format settings, QPel : No
Format settings, GMC : No warppoints
Format settings, Matrix : Default (H.263)
Muxing mode : Packed bitstream
Codec ID : XVID
Codec ID/Hint : XviD
Duration : 59mn 9s
Bit rate : 1 158 Kbps
Width : 640 pixels
Height : 352 pixels
Display aspect ratio : 16:9
Frame rate : 25.000 fps
Color space : YUV
Chroma subsampling : 4:2:0
Bit depth : 8 bits
Scan type : Progressive
Compression mode : Lossy
Bits/(Pixel*Frame) : 0.206
Stream size : 490 MiB (89%)
Writing library : XviD 1.2.1 (UTC 2008-12-04)

Audio
ID : 1
Format : MPEG Audio
Format version : Version 1
Format profile : Layer 3
Mode : Joint stereo
Codec ID : 55
Codec ID/Hint : MP3
Duration : 59mn 9s
Bit rate mode : Variable
Bit rate : 129 Kbps
Minimum bit rate : 32.0 Kbps
Channel(s) : 2 channels
Sampling rate : 48.0 KHz
Compression mode : Lossy
Stream size : 54.5 MiB (10%)
Alignment : Aligned on interleaves
Interleave, duration : 24 ms (0.60 video frame)
Interleave, preload duration : 595 ms
Writing library : LAME3.98r
Encoding settings : -m j -V 5 -q 2 -lowpass 16.5 –vbr-new -b 32

Screenshots

BBC - The Story Of Science (2010) (Repost)

BBC - The Story Of Science (2010) (Repost)

BBC - The Story Of Science (2010) (Repost)

no mirrors please, Follow The Rules
Visit Polik88 Blog Here
no password