BBC True North 2017 - Meet the Roma

Posted By: Tavaz
BBC True North 2017 -  Meet the Roma

BBC True North 2017 Meet the Roma
HDTV | MKV | 1280x720 | English | h264 @ 2020 kbps | AAC Stereo | 29:14 | 0.42 GB
Genre: Documentary

With unprecedented access to members of one of Northern Ireland's most marginalised ethnic communities, this documentary explores the experiences of the Roma people living in the Holylands district of Belfast. Following the racist attacks of 2009, it paints a portrait of the challenges faced by those who stayed, and their desire to build a future in Northern Ireland.



BBC.True.North.2017.Meet.the.Roma.720p.HDTV.x264.AAC.MVGroup.org.mkv (432.7 MB)



General
Unique ID : 172985133691160415520684883363120460602 (0x8223B992744575309E74FE5243DEB33A)
Complete name : ./BBC.True.North.2017.Meet.the.Roma.720p.HDTV.x264.AAC.MVGroup.org.mkv
Format : Matroska
Format version : Version 4 / Version 2
File size : 433 MiB
Duration : 29 min 14 s
Overall bit rate : 2 069 kb/s
Movie name : True North: Meet the Roma [MVGroup]
Encoded date : UTC 2017-11-14 15:11:55
Writing application : mkvmerge v17.0.0 ('Be Ur Friend') 64-bit
Writing library : libebml v1.3.5 + libmatroska v1.4.8

Video
ID : 1
Format : AVC
Format/Info : Advanced Video Codec
Format profile : High@L3.1
Format settings : CABAC / 4 Ref Frames
Format settings, CABAC : Yes
Format settings, RefFrames : 4 frames
Codec ID : V_MPEG4/ISO/AVC
Duration : 29 min 14 s
Bit rate : 2 003 kb/s
Width : 1 280 pixels
Height : 720 pixels
Display aspect ratio : 16:9
Frame rate mode : Constant
Frame rate : 25.000 FPS
Color space : YUV
Chroma subsampling : 4:2:0
Bit depth : 8 bits
Scan type : Progressive
Bits/(Pixel*Frame) : 0.087
Stream size : 419 MiB (97%)
Writing library : x264 core 152 r2851 MVGroup
Encoding settings : cabac=1 / ref=3 / deblock=1:0:0 / analyse=0x3:0x113 / me=umh / subme=9 / psy=1 / psy_rd=1.00:0.00 / mixed_ref=1 / me_range=24 / chroma_me=1 / trellis=1 / 8x8dct=1 / cqm=0 / deadzone=21,11 / fast_pskip=0 / chroma_qp_offset=-2 / threads=3 / lookahead_threads=1 / sliced_threads=0 / nr=0 / decimate=1 / interlaced=0 / bluray_compat=0 / constrained_intra=0 / bframes=6 / b_pyramid=2 / b_adapt=2 / b_bias=0 / direct=1 / weightb=1 / open_gop=0 / weightp=2 / keyint=250 / keyint_min=25 / scenecut=40 / intra_refresh=0 / rc_lookahead=40 / rc=crf / mbtree=1 / crf=20.0 / qcomp=0.60 / qpmin=0 / qpmax=69 / qpstep=4 / ip_ratio=1.40 / aq=1:1.00
Language : English
Default : Yes
Forced : No
Color range : Limited
Color primaries : BT.709
Transfer characteristics : BT.709
Matrix coefficients : BT.709

Audio
ID : 2
Format : AAC
Format/Info : Advanced Audio Codec
Format profile : HE-AAC / LC
Format settings : Explicit
Codec ID : A_AAC-2
Duration : 29 min 14 s
Bit rate : 64.0 kb/s
Channel(s) : 2 channels
Channel positions : Front: L R
Sampling rate : 48.0 kHz / 24.0 kHz
Frame rate : 23.438 FPS (1024 SPF)
Compression mode : Lossy
Delay relative to video : 43 ms
Stream size : 13.4 MiB (3%)
Language : English
Default : Yes
Forced : No

Text
ID : 3
Format : UTF-8
Codec ID : S_TEXT/UTF8
Codec ID/Info : UTF-8 Plain Text
Duration : 27 min 38 s
Bit rate : 76 b/s
Count of elements : 365
Stream size : 15.5 KiB (0%)
Language : English
Default : No
Forced : No





BBC True North 2017 -  Meet the Roma


BBC True North 2017 -  Meet the Roma


BBC True North 2017 -  Meet the Roma


BBC True North 2017 -  Meet the Roma