BBC - Wonders Of Life (2013)

Posted By: Polik88
BBC - Wonders Of Life (2013)

BBC - Wonders Of Life (2013)
English | MP4 | 720x404 | AVC 835 Kbps 25.000 fps | AAC 128 Kbps 48.0 khz | 3x59mn | 3x412 MB
Genre: Documentary

Wonders Of Life follows Professor Brian Cox as he travels the world to reveal how a few laws of science gave birth to the most complex, and unique feature of the universe- life.
General
Complete name :Wonders.Of.Life.1x01.mp4
Format : MPEG-4
Format profile : Base Media
Codec ID : isom
File size : 412 MiB
Duration : 59mn 27s
Overall bit rate mode : Variable
Overall bit rate : 968 Kbps
Encoded date : UTC 2013-01-26 22:34:09
Tagged date : UTC 2013-01-26 22:34:09

Video
ID : 1
Format : AVC
Format/Info : Advanced Video Codec
Format profile : High@L3.1
Format settings, CABAC : Yes
Format settings, ReFrames : 5 frames
Codec ID : avc1
Codec ID/Info : Advanced Video Coding
Duration : 59mn 27s
Bit rate : 835 Kbps
Maximum bit rate : 5 863 Kbps
Width : 720 pixels
Height : 404 pixels
Display aspect ratio : 16:9
Frame rate mode : Constant
Frame rate : 25.000 fps
Color space : YUV
Chroma subsampling : 4:2:0
Bit depth : 8 bits
Scan type : Progressive
Bits/(Pixel*Frame) : 0.115
Stream size : 355 MiB (86%)
Title : Video
Writing library : x264 core 129 r2245 bc13772
Encoding settings : cabac=1 / ref=5 / deblock=1:-1:-1 / analyse=0x3:0x113 / me=umh / subme=8 / psy=1 / psy_rd=1.00:0.15 / mixed_ref=1 / me_range=16 / chroma_me=1 / trellis=1 / 8x8dct=1 / cqm=0 / deadzone=21,11 / fast_pskip=1 / chroma_qp_offset=-3 / threads=18 / lookahead_threads=3 / sliced_threads=0 / nr=0 / decimate=1 / interlaced=0 / bluray_compat=0 / constrained_intra=0 / bframes=3 / b_pyramid=2 / b_adapt=2 / b_bias=0 / direct=3 / weightb=1 / open_gop=0 / weightp=2 / keyint=250 / keyint_min=25 / scenecut=40 / intra_refresh=0 / rc_lookahead=50 / rc=crf / mbtree=1 / crf=22.0 / qcomp=0.60 / qpmin=0 / qpmax=69 / qpstep=4 / ip_ratio=1.40 / aq=1:1.00
Encoded date : UTC 2013-01-26 22:34:09
Tagged date : UTC 2013-01-26 22:34:26
Matrix coefficients : BT.709-5, BT.1361, IEC 61966-2-4 709, SMPTE RP177

Audio
ID : 2
Format : AAC
Format/Info : Advanced Audio Codec
Format profile : LC
Codec ID : 40
Duration : 59mn 27s
Bit rate mode : Variable
Bit rate : 128 Kbps
Maximum bit rate : 168 Kbps
Channel(s) : 2 channels
Channel positions : Front: L R
Sampling rate : 48.0 KHz
Compression mode : Lossy
Delay relative to video : 87ms
Stream size : 54.5 MiB (13%)
Language : English
Encoded date : UTC 2013-01-26 22:34:18
Tagged date : UTC 2013-01-26 22:34:26

Screenshots

BBC - Wonders Of Life (2013)

BBC - Wonders Of Life (2013)

BBC - Wonders Of Life (2013)

no mirrors please, Follow The Rules
Visit Polik88 Blog Here
no password