BBC - Attenborough and the Giant Elephant (2017)

Posted By: notbanned
720p (HD) / HDTV
BBC - Attenborough and the Giant Elephant (2017)

BBC - Attenborough and the Giant Elephant (2017)
HDTV | 1280x720 | .MP4/AVC @ 2675 Kbps | 58 min 0 s | 1.17 GiB
Audio: English AAC 160 kbps, 2 channels | Subs: English
Genre: Documentary

David Attenborough investigates the remarkable life and death of Jumbo the elephant - a celebrity animal superstar whose story is said to have inspired the movie Dumbo. Attenborough joins a team of scientists and conservationists to unravel the complex and mysterious story of this large African elephant - an elephant many believed to be the biggest in the world. With unique access to Jumbo's skeleton at the American Museum of Natural History, the team work together to separate myth from reality. How big was Jumbo really? How was he treated in captivity? And how did he die? Jumbo's bones may offer vital clues.

General
Complete name : BBC.Attenborough.And.The.Giant.Elephant.720p.mp4
Format : MPEG-4
Format profile : Base Media
Codec ID : isom (isom)
File size : 1.17 GiB
Duration : 58 min 0 s
Overall bit rate mode : Variable
Overall bit rate : 2 898 kb/s

Video
ID : 1
Format : AVC
Format/Info : Advanced Video Codec
Format profile : High@L4.1
Format settings, CABAC : Yes
Format settings, ReFrames : 4 frames
Codec ID : avc1
Codec ID/Info : Advanced Video Coding
Duration : 58 min 0 s
Bit rate : 2 675 kb/s
Maximum bit rate : 16.5 Mb/s
Width : 1 280 pixels
Height : 720 pixels
Display aspect ratio : 16:9
Frame rate mode : Constant
Frame rate : 25.000 FPS
Color space : YUV
Chroma subsampling : 4:2:0
Bit depth : 8 bits
Scan type : Progressive
Bits/(Pixel*Frame) : 0.116
Stream size : 1.11 GiB (94%)
Encoding settings : cabac=1 / ref=2 / deblock=1:0:0 / analyse=0x3:0x113 / me=hex / subme=4 / psy=1 / psy_rd=1.00:0.00 / mixed_ref=0 / me_range=16 / chroma_me=1 / trellis=1 / 8x8dct=1 / cqm=0 / deadzone=21,11 / fast_pskip=1 / chroma_qp_offset=0 / threads=6 / lookahead_threads=1 / sliced_threads=0 / nr=0 / decimate=1 / interlaced=0 / bluray_compat=0 / constrained_intra=0 / bframes=3 / b_pyramid=2 / b_adapt=1 / b_bias=0 / direct=1 / weightb=1 / open_gop=0 / weightp=1 / keyint=250 / keyint_min=25 / scenecut=40 / intra_refresh=0 / rc_lookahead=20 / rc=abr / mbtree=1 / bitrate=2675 / ratetol=1.0 / qcomp=0.60 / qpmin=0 / qpmax=69 / qpstep=4 / vbv_maxrate=62500 / vbv_bufsize=78125 / nal_hrd=none / ip_ratio=1.40 / aq=1:1.00
Encoded date : UTC 2017-12-11 01:22:42
Tagged date : UTC 2017-12-11 02:47:23
Color range : Limited
Color primaries : BT.709
Transfer characteristics : BT.709
Matrix coefficients : BT.709

Audio
ID : 2
Format : AAC
Format/Info : Advanced Audio Codec
Format profile : LC
Codec ID : 40
Duration : 58 min 0 s
Bit rate mode : Variable
Bit rate : 160 kb/s
Maximum bit rate : 280 kb/s
Channel(s) : 2 channels
Channel positions : Front: L R
Sampling rate : 48.0 kHz
Frame rate : 46.875 FPS (1024 spf)
Compression mode : Lossy
Stream size : 66.4 MiB (6%)
Language : English
Encoded date : UTC 2017-12-11 02:47:19
Tagged date : UTC 2017-12-11 02:47:23

Text
ID : 3
Format : Timed Text
Codec ID : tx3g
Duration : 57 min 23 s
Bit rate mode : Variable
Bit rate : 94 b/s
Stream size : 39.4 KiB (0%)
Forced : No
Encoded date : UTC 2017-12-11 02:47:23
Tagged date : UTC 2017-12-11 02:47:23


Screenshots:

BBC - Attenborough and the Giant Elephant (2017)

BBC - Attenborough and the Giant Elephant (2017)

BBC - Attenborough and the Giant Elephant (2017)

BBC - Attenborough and the Giant Elephant (2017)