Subcategories

BBC - Black Roses: The Killing of Sophie Lancaster (2015)

Posted By: notbanned
BBC - Black Roses: The Killing of Sophie Lancaster (2015)

BBC - Black Roses: The Killing of Sophie Lancaster (2015)
HDTV | 1920x750 | .MP4/AVC @ 2137 Kbps | 43 min 45 s | 712 MiB
Audio: English AAC 132 kbps, 2 channels | Subs: English
Genre: Documentary

Sophie Lancaster was kicked to death in a Lancashire park in 2007 because of her appearance. Sylvia Lancaster remembers her daughter and the tragic events after the attack as Sophie tells her own story through a sequence of poems written by poet by Simon Armitage.


General
Complete name : BBC.Black.Roses.The.Killing.of.Sophie.Lancaster.1080p.mp4
Format : MPEG-4
Format profile : Base Media
Codec ID : isom (isom)
File size : 712 MiB
Duration : 43 min 45 s
Overall bit rate mode : Variable
Overall bit rate : 2 274 kb/s

Video
ID : 1
Format : AVC
Format/Info : Advanced Video Codec
Format profile : High@L4.1
Format settings, CABAC : Yes
Format settings, ReFrames : 4 frames
Codec ID : avc1
Codec ID/Info : Advanced Video Coding
Duration : 43 min 45 s
Bit rate : 2 137 kb/s
Maximum bit rate : 15.1 Mb/s
Width : 1 920 pixels
Height : 750 pixels
Display aspect ratio : 2.560
Frame rate mode : Constant
Frame rate : 25.000 FPS
Color space : YUV
Chroma subsampling : 4:2:0
Bit depth : 8 bits
Scan type : Progressive
Bits/(Pixel*Frame) : 0.059
Stream size : 669 MiB (94%)
Encoding settings : cabac=1 / ref=4 / deblock=1:-1:-1 / analyse=0x3:0x113 / me=umh / subme=9 / psy=1 / psy_rd=1.00:0.15 / mixed_ref=1 / me_range=32 / chroma_me=1 / trellis=1 / 8x8dct=1 / cqm=0 / deadzone=21,11 / fast_pskip=0 / chroma_qp_offset=-3 / threads=3 / lookahead_threads=1 / sliced_threads=0 / nr=0 / decimate=1 / interlaced=0 / bluray_compat=0 / constrained_intra=0 / bframes=6 / b_pyramid=2 / b_adapt=2 / b_bias=0 / direct=1 / weightb=1 / open_gop=0 / weightp=2 / keyint=250 / keyint_min=25 / scenecut=40 / intra_refresh=0 / rc_lookahead=40 / rc=crf / mbtree=1 / crf=21.0 / qcomp=0.60 / qpmin=0 / qpmax=69 / qpstep=4 / ip_ratio=1.40 / aq=1:1.00
Encoded date : UTC 2017-08-14 14:49:11
Tagged date : UTC 2017-08-14 15:16:11
Color range : Limited
Color primaries : BT.709
Transfer characteristics : BT.709
Matrix coefficients : BT.709

Audio
ID : 2
Format : AAC
Format/Info : Advanced Audio Codec
Format profile : LC
Codec ID : 40
Duration : 43 min 45 s
Source duration : 43 min 45 s
Bit rate mode : Variable
Bit rate : 132 kb/s
Maximum bit rate : 185 kb/s
Channel(s) : 2 channels
Channel positions : Front: L R
Sampling rate : 48.0 kHz
Frame rate : 46.875 FPS (1024 spf)
Compression mode : Lossy
Stream size : 41.5 MiB (6%)
Source stream size : 41.5 MiB (6%)
Title : English
Language : English
Encoded date : UTC 2017-08-14 15:03:24
Tagged date : UTC 2017-08-14 15:16:11

Text
ID : 3
Format : Timed Text
Codec ID : tx3g
Duration : 42 min 42 s
Bit rate mode : Variable
Bit rate : 86 b/s
Stream size : 27.0 KiB (0%)
Title : English
Language : English
Default : No
Forced : No
Encoded date : UTC 2017-08-14 15:16:11
Tagged date : UTC 2017-08-14 15:16:11


Screenshots:

BBC - Black Roses: The Killing of Sophie Lancaster (2015)

BBC - Black Roses: The Killing of Sophie Lancaster (2015)

BBC - Black Roses: The Killing of Sophie Lancaster (2015)

BBC - Black Roses: The Killing of Sophie Lancaster (2015)