Subcategories

BBC - Cornwall's Native Poet: Charles Causley (2017)

Posted By: notbanned
BBC - Cornwall's Native Poet: Charles Causley (2017)

BBC - Cornwall's Native Poet: Charles Causley (2017)
HDTV | 1280x720 | .MKV/AVC @ 1727 Kbps | 58 min 53 s | 781 MiB
Audio: English AAC 125 kbps, 2 channels | Subs: English
Genre: Documentary

Charles Causley was one of the great poets of his generation. Born in 1917 in Launceston, north Cornwall, on the edge of Bodmin Moor, the only time he left was for active service in the Royal Navy during the Second World War. His father died when he was a boy as a result of a gas attack in the trenches of World War One and he lived the rest of his life in the same house as his mother. He knew everyone and they knew him. He devoted his life to teaching, poetry and his mum. Charles Causley said that everything you needed to know about him was in the poetry. He wrote directly from experience about the people of Launceston and the changes in the town, both world wars, his shipmates, local history, myths, animals and God.


General
Unique ID : 212332920398292113359078406386681270511 (0x9FBDD53CB2A8890CACDE6242D01E50EF)
Complete name : BBC.Cornwalls.Native.Poet.Charles.Causley.720p.mkv
Format : Matroska
Format version : Version 4 / Version 2
File size : 781 MiB
Duration : 58 min 53 s
Overall bit rate : 1 855 kb/s

Video
ID : 1
Format : AVC
Format/Info : Advanced Video Codec
Format profile : High@L3.1
Format settings, CABAC : Yes
Format settings, ReFrames : 4 frames
Codec ID : V_MPEG4/ISO/AVC
Duration : 58 min 53 s
Bit rate : 1 727 kb/s
Width : 1 280 pixels
Height : 720 pixels
Display aspect ratio : 16:9
Frame rate mode : Constant
Frame rate : 25.000 FPS
Color space : YUV
Chroma subsampling : 4:2:0
Bit depth : 8 bits
Scan type : Progressive
Bits/(Pixel*Frame) : 0.075
Stream size : 728 MiB (93%)
Encoding settings : cabac=1 / ref=3 / deblock=1:0:0 / analyse=0x3:0x113 / me=umh / subme=9 / psy=1 / psy_rd=1.00:0.00 / mixed_ref=1 / me_range=24 / chroma_me=1 / trellis=1 / 8x8dct=1 / cqm=0 / deadzone=21,11 / fast_pskip=0 / chroma_qp_offset=-2 / threads=3 / lookahead_threads=1 / sliced_threads=0 / nr=0 / decimate=1 / interlaced=0 / bluray_compat=0 / constrained_intra=0 / bframes=6 / b_pyramid=2 / b_adapt=2 / b_bias=0 / direct=1 / weightb=1 / open_gop=0 / weightp=2 / keyint=250 / keyint_min=25 / scenecut=40 / intra_refresh=0 / rc_lookahead=40 / rc=crf / mbtree=1 / crf=19.0 / qcomp=0.60 / qpmin=0 / qpmax=69 / qpstep=4 / ip_ratio=1.40 / aq=1:1.00
Language : English
Default : Yes
Forced : No
Color range : Limited
Color primaries : BT.709
Transfer characteristics : BT.709
Matrix coefficients : BT.709

Audio
ID : 2
Format : AAC
Format/Info : Advanced Audio Codec
Format profile : LC
Codec ID : A_AAC
Duration : 58 min 53 s
Bit rate : 125 kb/s
Channel(s) : 2 channels
Channel positions : Front: L R
Sampling rate : 48.0 kHz
Frame rate : 46.875 FPS (1024 spf)
Compression mode : Lossy
Delay relative to video : 9 ms
Stream size : 52.9 MiB (7%)
Language : English
Default : Yes
Forced : No

Text
ID : 3
Format : UTF-8
Codec ID : S_TEXT/UTF8
Codec ID/Info : UTF-8 Plain Text
Duration : 58 min 8 s
Bit rate : 76 b/s
Count of elements : 784
Stream size : 32.6 KiB (0%)
Language : English
Default : No


Screenshots:

BBC - Cornwall's Native Poet: Charles Causley (2017)

BBC - Cornwall's Native Poet: Charles Causley (2017)

BBC - Cornwall's Native Poet: Charles Causley (2017)

BBC - Cornwall's Native Poet: Charles Causley (2017)