BBC - Delphi: Why It Matters (2010)

Posted By: notbanned
1080p (FullHD) / HDTV IMDb
BBC - Delphi: Why It Matters (2010)

BBC - Delphi: Why It Matters (2010)
HDTV | 1920x1080 | .MP4/AVC @ 4233 Kbps | 57 min 39 s | 1.77 GiB
Audio: English AAC 157 kbps, 2 channels | Subs: English
Genre: Documentary

The site of the famous Oracle, Delphi spanned two great classical civilizations - the Greeks and the Romans - and attracted travelers from all over the ancient world. The city's walls contain the hopes and dreams and the victories and failures that defined entire civilizations.

General
Complete name : BBC.Delphi.Why.It.Matters.1080p.mp4
Format : MPEG-4
Format profile : Base Media
Codec ID : isom (isom)
File size : 1.77 GiB
Duration : 57 min 39 s
Overall bit rate mode : Variable
Overall bit rate : 4 393 kb/s

Video
ID : 1
Format : AVC
Format/Info : Advanced Video Codec
Format profile : High@L4.1
Format settings, CABAC : No
Format settings, ReFrames : 1 frame
Format settings, GOP : M=1, N=12
Codec ID : avc1
Codec ID/Info : Advanced Video Coding
Duration : 57 min 39 s
Bit rate : 4 233 kb/s
Maximum bit rate : 25.8 Mb/s
Width : 1 920 pixels
Height : 1 080 pixels
Display aspect ratio : 16:9
Frame rate mode : Constant
Frame rate : 29.970 (30000/1001) FPS
Color space : YUV
Chroma subsampling : 4:2:0
Bit depth : 8 bits
Scan type : Progressive
Bits/(Pixel*Frame) : 0.068
Stream size : 1.70 GiB (96%)

Audio
ID : 2
Format : AAC
Format/Info : Advanced Audio Codec
Format profile : LC
Codec ID : 40
Duration : 57 min 39 s
Bit rate mode : Variable
Bit rate : 157 kb/s
Maximum bit rate : 256 kb/s
Channel(s) : 2 channels
Channel positions : Front: L R
Sampling rate : 48.0 kHz
Frame rate : 46.875 FPS (1024 spf)
Compression mode : Lossy
Stream size : 64.7 MiB (4%)
Language : English
Encoded date : UTC 2018-03-08 22:45:17
Tagged date : UTC 2018-03-08 22:45:24

Text
ID : 3
Format : Timed Text
Codec ID : tx3g
Duration : 57 min 39 s
Bit rate mode : Variable
Bit rate : 97 b/s
Stream size : 40.8 KiB (0%)
Forced : No
Encoded date : UTC 2018-03-08 22:45:24
Tagged date : UTC 2018-03-08 22:45:24


Screenshots:

BBC - Delphi: Why It Matters (2010)

BBC - Delphi: Why It Matters (2010)

BBC - Delphi: Why It Matters (2010)

BBC - Delphi: Why It Matters (2010)