BBC - Hugh Masekela: Welcome to South Africa (2010)

Posted By: notbanned
720p (HD) / HDTV
BBC - Hugh Masekela: Welcome to South Africa (2010)

BBC - Hugh Masekela: Welcome to South Africa (2010)
HDTV | 1280x720 | .MKV/AVC @ 2949 Kbps | 57 min 45 s | 1.25 GiB
Audio: English AAC 150 kbps, 2 channels | Subs: English
Genre: Documentary

South African musician Hugh Masekela celebrates his 70th birthday and reflects on his career in performance and interview, from first picking up a trumpet in the 50s through the apartheid years, exile and stardom in America, his return to South Africa on Nelson Mandela's release, and concluding with his vision of the future for his country. The programme also features performances from his 70th birthday concert at the Barbican in London in December 2009, where he was joined by the London Symphony Orchestra, their Community Choir and guest South African singers.

General
Unique ID : 292002594007686590854191173058869557481 (0xDBADA76A2C2F3E179707FC861AE378E9)
Complete name : BBC.Hugh.Masekela.Welcome.to.South.Africa.720p.mkv
Format : Matroska
Format version : Version 4 / Version 2
File size : 1.25 GiB
Duration : 57 min 45 s
Overall bit rate : 3 101 kb/s

Video
ID : 1
Format : AVC
Format/Info : Advanced Video Codec
Format profile : High@L3.1
Format settings, CABAC : Yes
Format settings, ReFrames : 4 frames
Codec ID : V_MPEG4/ISO/AVC
Duration : 57 min 45 s
Bit rate : 2 949 kb/s
Width : 1 280 pixels
Height : 720 pixels
Display aspect ratio : 16:9
Frame rate mode : Constant
Frame rate : 25.000 FPS
Color space : YUV
Chroma subsampling : 4:2:0
Bit depth : 8 bits
Scan type : Progressive
Bits/(Pixel*Frame) : 0.128
Stream size : 1.19 GiB (95%)
Encoding settings : cabac=1 / ref=3 / deblock=1:0:0 / analyse=0x3:0x113 / me=umh / subme=9 / psy=1 / psy_rd=1.00:0.00 / mixed_ref=1 / me_range=24 / chroma_me=1 / trellis=1 / 8x8dct=1 / cqm=0 / deadzone=21,11 / fast_pskip=0 / chroma_qp_offset=-2 / threads=3 / lookahead_threads=1 / sliced_threads=0 / nr=0 / decimate=1 / interlaced=0 / bluray_compat=0 / constrained_intra=0 / bframes=6 / b_pyramid=2 / b_adapt=2 / b_bias=0 / direct=1 / weightb=1 / open_gop=0 / weightp=2 / keyint=250 / keyint_min=25 / scenecut=40 / intra_refresh=0 / rc_lookahead=40 / rc=crf / mbtree=1 / crf=20.0 / qcomp=0.60 / qpmin=0 / qpmax=69 / qpstep=4 / ip_ratio=1.40 / aq=1:1.00
Language : English
Default : Yes
Forced : No
Color range : Limited
Color primaries : BT.709
Transfer characteristics : BT.709
Matrix coefficients : BT.709

Audio
ID : 2
Format : AAC
Format/Info : Advanced Audio Codec
Format profile : LC
Codec ID : A_AAC
Duration : 57 min 45 s
Bit rate : 150 kb/s
Channel(s) : 2 channels
Channel positions : Front: L R
Sampling rate : 48.0 kHz
Frame rate : 46.875 FPS (1024 spf)
Compression mode : Lossy
Delay relative to video : 9 ms
Stream size : 61.9 MiB (5%)
Language : English
Default : Yes
Forced : No

Text
ID : 3
Format : UTF-8
Codec ID : S_TEXT/UTF8
Codec ID/Info : UTF-8 Plain Text
Duration : 57 min 10 s
Bit rate : 20 b/s
Count of elements : 206
Stream size : 8.75 KiB (0%)
Language : English
Default : No
Forced : No


Screenshots:

BBC - Hugh Masekela: Welcome to South Africa (2010)

BBC - Hugh Masekela: Welcome to South Africa (2010)

BBC - Hugh Masekela: Welcome to South Africa (2010)

BBC - Hugh Masekela: Welcome to South Africa (2010)