BBC - Me and My New Brain (2015)

Posted By: notbanned
BBC - Me and My New Brain (2015)

BBC - Me and My New Brain (2015)
HDTV | 1280x720 | .MP4/AVC @ 3022 Kbps | 56mn 52s | Audio: English AAC 159 kbps, 2 channels | Subs: English | 1.27 GiB
Genre: Documentary

Charlie Elmore suffered a brain injury in a snowboarding accident four years ago. Now she's going to retrace the steps of her dramatic recovery and meet other young people adjusting to life after serious brain injuries, including 19-year-old car-crash survivor Callum, avid skier Tai and fashion buyer Hannah, who has to re-learn how to walk and talk after she collapsed whilst out shopping and hit her head on the pavement. With their help, Charlie embarks on a courageous journey to improve understanding of this 'invisible' disability, which is the biggest cause of acquired disability in young adults in Britain, and discovers the hidden ways it affects her own life too.


General
Complete name : BBC.Me.and.My.New.Brain.mp4
Format : MPEG-4
Format profile : Base Media
Codec ID : isom
File size : 1.27 GiB
Duration : 56mn 52s
Overall bit rate mode : Variable
Overall bit rate : 3 185 Kbps

Video
ID : 1
Format : AVC
Format/Info : Advanced Video Codec
Format profile : High@L4.1
Format settings, CABAC : No
Format settings, ReFrames : 1 frame
Format settings, GOP : M=1, N=12
Codec ID : avc1
Codec ID/Info : Advanced Video Coding
Duration : 56mn 52s
Bit rate : 3 023 Kbps
Maximum bit rate : 11.0 Mbps
Width : 1 280 pixels
Height : 720 pixels
Display aspect ratio : 16:9
Frame rate mode : Constant
Frame rate : 25.000 fps
Color space : YUV
Chroma subsampling : 4:2:0
Bit depth : 8 bits
Scan type : Progressive
Bits/(Pixel*Frame) : 0.131
Stream size : 1.20 GiB (95%)
Encoded date : UTC 2015-07-30 23:10:15
Tagged date : UTC 2015-08-01 18:09:56

Audio
ID : 2
Format : AAC
Format/Info : Advanced Audio Codec
Format profile : LC
Codec ID : 40
Duration : 56mn 52s
Bit rate mode : Variable
Bit rate : 159 Kbps
Maximum bit rate : 234 Kbps
Channel(s) : 2 channels
Channel positions : Front: L R
Sampling rate : 48.0 KHz
Compression mode : Lossy
Stream size : 64.8 MiB (5%)
Encoded date : UTC 2015-08-01 18:09:51
Tagged date : UTC 2015-08-01 18:09:56

Text
ID : 3
Format : Timed text
Codec ID : tx3g
Duration : 56mn 12s
Bit rate mode : Variable
Bit rate : 103 bps
Stream size : 42.4 KiB (0%)
Encoded date : UTC 2015-08-01 18:09:56
Tagged date : UTC 2015-08-01 18:09:56


Screenshots:

BBC - Me and My New Brain (2015)

BBC - Me and My New Brain (2015)

BBC - Me and My New Brain (2015)

BBC - Me and My New Brain (2015)