BBC - Revolution: New Art for a New World (2017)

Posted By: notbanned
BBC - Revolution: New Art for a New World (2017)

BBC - Revolution: New Art for a New World (2017)
HDTV | 1920x1036 | .MKV/AVC @ 2493 Kbps | 1 h 20 min | 1.48 GiB
Audio: English AAC 140 kbps, 2 channels | Subs: English
Genre: Documentary | History

Directed by Margy Kinmonth, this documentary encapsulates a momentous period in the history of Russia and the Russian avant-garde. Drawing on the collections of major Russian institutions, contributions from contemporary artists, curators and performers, and personal testimony from the descendants of those involved, the film brings the artists of the Russian avant-garde to life. It tells the stories of artists like Chagall, Kandinsky, Malevich and others - pioneers who flourished in response to the utopian challenge of building a new art for a new world, only to be broken by implacable authority after 15 short years. Stalin's rise to power marked the close of this momentous period, consigning the avant-garde to obscurity. Yet the Russian avant-garde continues to exert a lasting influence over art movements up to the present day. The film confirms this, exploring the fascination that these colourful paintings, inventive sculptures and propaganda posters retain over the modern consciousness 100 years on.
More info


General
Unique ID : 209860087550093862814286354007296862290 (0x9DE1952A2706A88AB1B0E66760A86852)
Complete name : BBC.Revolution.New.Art.for.a.New.World.1080p.mkv
Format : Matroska
Format version : Version 4 / Version 2
File size : 1.48 GiB
Duration : 1 h 20 min
Overall bit rate : 2 636 kb/s

Video
ID : 1
Format : AVC
Format/Info : Advanced Video Codec
Format profile : High@L4.1
Format settings, CABAC : Yes
Format settings, ReFrames : 4 frames
Codec ID : V_MPEG4/ISO/AVC
Duration : 1 h 20 min
Bit rate : 2 493 kb/s
Width : 1 920 pixels
Height : 1 036 pixels
Display aspect ratio : 1.85:1
Frame rate mode : Constant
Frame rate : 25.000 FPS
Color space : YUV
Chroma subsampling : 4:2:0
Bit depth : 8 bits
Scan type : Progressive
Bits/(Pixel*Frame) : 0.050
Stream size : 1.40 GiB (95%)
Encoding settings : cabac=1 / ref=4 / deblock=1:0:0 / analyse=0x3:0x113 / me=umh / subme=9 / psy=1 / psy_rd=1.00:0.00 / mixed_ref=1 / me_range=32 / chroma_me=1 / trellis=1 / 8x8dct=1 / cqm=0 / deadzone=21,11 / fast_pskip=0 / chroma_qp_offset=-2 / threads=3 / lookahead_threads=1 / sliced_threads=0 / nr=0 / decimate=1 / interlaced=0 / bluray_compat=0 / constrained_intra=0 / bframes=6 / b_pyramid=2 / b_adapt=2 / b_bias=0 / direct=1 / weightb=1 / open_gop=0 / weightp=2 / keyint=250 / keyint_min=25 / scenecut=40 / intra_refresh=0 / rc_lookahead=40 / rc=crf / mbtree=1 / crf=23.0 / qcomp=0.60 / qpmin=0 / qpmax=69 / qpstep=4 / ip_ratio=1.40 / aq=1:1.00
Language : English
Default : Yes
Forced : No
Color range : Limited
Color primaries : BT.709
Transfer characteristics : BT.709
Matrix coefficients : BT.709

Audio
ID : 2
Format : AAC
Format/Info : Advanced Audio Codec
Format profile : LC
Codec ID : A_AAC
Duration : 1 h 20 min
Bit rate : 140 kb/s
Channel(s) : 2 channels
Channel positions : Front: L R
Sampling rate : 48.0 kHz
Frame rate : 46.875 FPS (1024 spf)
Compression mode : Lossy
Delay relative to video : 9 ms
Stream size : 80.6 MiB (5%)
Language : English
Default : Yes
Forced : No

Text
ID : 3
Format : UTF-8
Codec ID : S_TEXT/UTF8
Codec ID/Info : UTF-8 Plain Text
Duration : 1 h 18 min
Bit rate : 82 b/s
Count of elements : 1092
Stream size : 47.3 KiB (0%)
Language : English
Default : No
Forced : No


Screenshots:

BBC - Revolution: New Art for a New World (2017)

BBC - Revolution: New Art for a New World (2017)

BBC - Revolution: New Art for a New World (2017)

BBC - Revolution: New Art for a New World (2017)