Nelson Mandela: The Myth and Me (2013)

Posted By: notbanned
1080p (FullHD) / HDTV IMDb
Nelson Mandela: The Myth and Me (2013)

Nelson Mandela: The Myth and Me (2013)
HDTV | 1920x1080 | .MKV/AVC @ 3922 Kbps | 1 h 15 min | 2.17 GiB
Audio: English AC3 192 kbps, 2 channels | Subs: English
Genre: Documentary | Biography | History

Documentary made by a young South African filmmaker before Nelson Mandela's death which raises important questions about the iconic leader's legacy. Khalo Matabane spent two years making the film, interviewing those who knew and loved Mandela, and also those who criticised him. Global thinkers, politicians and artists including the Dalai Lama, Henry Kissinger and Ariel Dorfman talk about the effect of his policies and his decision making. Their thoughts are weighed equally with ordinary South Africans like Charity Kondile, who refuses to forgive her son's apartheid operative murderer. Through these interviews, completed in the last months of Mandela's life, Matabane interrogates for himself the meaning of freedom, reconciliation and forgiveness. By doing so he challenges Mandela's enduring impact in today's world of conflict and inequality. Thought-provoking and reflective, Mandela, the Myth and Me is a moving film which frames Mandela from a fresh, deeply personal perspective.


General
Unique ID : 208075720664920499163351142168273090461 (0x9C89ED15BB5D9E0F9E02AEBBEC1FF79D)
Complete name : BBC.Storyville.2013.Mandela.The.Myth.and.Me.1080p.mkv
Format : Matroska
Format version : Version 4 / Version 2
File size : 2.17 GiB
Duration : 1 h 15 min
Overall bit rate : 4 116 kb/s

Video
ID : 1
Format : AVC
Format/Info : Advanced Video Codec
Format profile : High@L4
Format settings, CABAC : Yes
Format settings, ReFrames : 4 frames
Format settings, GOP : M=8, N=24
Codec ID : V_MPEG4/ISO/AVC
Duration : 1 h 15 min
Bit rate : 3 922 kb/s
Width : 1 920 pixels
Height : 1 080 pixels
Display aspect ratio : 16:9
Frame rate mode : Variable
Frame rate : 25.116 FPS
Original frame rate : 25.000 FPS
Standard : Component
Color space : YUV
Chroma subsampling : 4:2:0
Bit depth : 8 bits
Scan type : MBAFF
Scan type, store method : Interleaved fields
Scan order : Top Field First
Bits/(Pixel*Frame) : 0.075
Stream size : 2.07 GiB (95%)
Default : Yes
Forced : No
Color range : Limited
Color primaries : BT.709
Transfer characteristics : BT.709
Matrix coefficients : BT.709

Audio
ID : 2
Format : AC-3
Format/Info : Audio Coding 3
Format settings, Endianness : Big
Codec ID : A_AC3
Duration : 1 h 15 min
Bit rate mode : Constant
Bit rate : 192 kb/s
Channel(s) : 2 channels
Channel positions : Front: L R
Sampling rate : 48.0 kHz
Frame rate : 31.250 FPS (1536 spf)
Bit depth : 16 bits
Compression mode : Lossy
Stream size : 104 MiB (5%)
Language : English
Service kind : Complete Main
Default : Yes
Forced : No

Text
ID : 3
Format : UTF-8
Codec ID : S_TEXT/UTF8
Codec ID/Info : UTF-8 Plain Text
Duration : 1 h 14 min
Bit rate : 73 b/s
Count of elements : 937
Stream size : 40.2 KiB (0%)
Language : English
Default : Yes
Forced : No


Screenshots:

Nelson Mandela: The Myth and Me (2013)

Nelson Mandela: The Myth and Me (2013)

Nelson Mandela: The Myth and Me (2013)

Nelson Mandela: The Myth and Me (2013)